вход на сайт

Имя пользователя :
Пароль :

Восстановление пароля Регистрация
(2008) Deep Purple / Greatest Hits [Star Mark Compilations] (2CD) (Hard Rock) [FLAC (image + .cue), lossless]
Рейтинг:
(голосов: 1)



[img]{THEME}/images/logopost.png[/img]






Страна: United Kingdom
Жанр: Hard-Rock
Формат: FLAC (image +.cue)
Битрейт: lossless
Log-Файл: Присутствует
Продолжительность: 02:37:24


Об исполнителе:
▼Deep Purple — британская рок-группа, образованная в феврале 1968 года в Хартфорде, Англия, и считающаяся одной из самых заметных и влиятельных в «тяжёлой музыке» 1970-х годов. Музыкальные критики называют Deep Purple в числе основателей хард-рока и высоко оценивают их вклад в развитие прогрессивного рока и хеви-метала. Музыканты «классического» состава Deep Purple (в частности, гитарист Ричи Блэкмор, клавишник Джон Лорд, барабанщик Ян Пейс) считаются инструменталистами-виртуозами. В мире продано около 240 миллионов копий их альбомов.
Состав группы:

Иэн Гиллан — вокал
Стив Морс — гитара
Роджер Гловер — бас-гитара
Дон Эйри — клавишные
Иэн Пэйс — ударные



Greatest Hits:


CD1


Продолжительность: 01:19:57

Tреклист:
01. Hush (04:27.04)
02. Black Night (03:26.59)
03. Speed King (04:20.72)
04. Fireball (03:23.58)
05. Strange Kind Of Woman (04:04.64)
06. Im Alone (03:05.21)
07. Highway Star (06:07.10)
08. Smoke On The Water (05:39.47)
09. Child In Time (10:15.35)
10. Lazy (07:21.55)
11. Pictures Of Home (05:02.15)
12. Space Truckin (04:31.00)
13. Woman From Tokyo (05:47.25)
14. Bloodsucker (04:09.08)
15. Anyones Daughter (04:44.20)
16. When A Blind Man Cries (03:30.20)


Отчет EAC▼TextExact Audio Copy V0.99 prebeta 5 from 4. May 2009

Отчёт EAC об извлечении, выполненном 18. августа 2011, 19:21

Deep Purple / Greatest Hits CD1

Дисковод: _NEC DVD_RW ND-4550A Adapter: 3 ID: 0

Режим чтения : Достоверность
Использование точного потока : Да
Отключение кэша аудио : Да
Использование указателей C2 : Нет

Коррекция смещения при чтении : 48
Способность читать области Lead-in и Lead-out : Нет
Заполнение пропущенных сэмплов тишиной : Да
Удаление блоков с тишиной в начале и конце : Нет
При вычислениях CRC использовались нулевые сэмплы : Да
Интерфейс : Установленный внешний ASPI-интерфейс

Выходной формат : Внутренние WAV-операции
Формат сэмплов : 44.100 Гц; 16 бит; стерео


TOC извлечённого CD

Трек | Старт | Длительность | Начальный сектор | Конечный сектор
---------------------------------------------------------------------
1 | 0:00.00 | 4:27.04 | 0 | 20028
2 | 4:27.04 | 3:26.59 | 20029 | 35537
3 | 7:53.63 | 4:20.72 | 35538 | 55109
4 | 12:14.60 | 3:23.58 | 55110 | 70392
5 | 15:38.43 | 4:04.64 | 70393 | 88756
6 | 19:43.32 | 3:05.21 | 88757 | 102652
7 | 22:48.53 | 6:07.10 |
992b8ef0b5469003311a68a45f52b9352231fd11(2008) Deep Purple / Greatest Hits [Star Mark Compilations] (2CD) (Hard Rock) [FLAC (image + .cue), lossless] (2008) Deep Purple / Greatest Hits [Star Mark Compilations] (2CD) (Hard Rock) [FLAC (image + .cue), lossless] " />

Аплоадер: Админ, дата: 2-02-2013, 01:09, торрент скачан: 359 раз

Понравилась раздача? Посмотрите эти:
  • (2000) Lenny Kravitz / Greatest Hits (Rock, Funk) [FLAC (image+.cue), lossl ...
  • (2013) Deep Purple / Now What?! (Japanese SHM-CD Edition) (Hard Rock) [MP3, ...
  • (2013) Deep Purple / Slaves And Masters (1990, Remastered, Extended Version ...
  • (2013) Deep Purple / Now What?! (Hard Rock) [MP3, 320/CBR]
  • (2013) Deep Purple / Now What?! (Deluxe Edition) (Hard Rock, Heavy Metal) [ ...
  • (2013) Deep Purple / All the Time in the World (EP) ( Hard Rock ) [MP3, 320 ...
  • Deep Purple/Come Hell or High Water[1993,Hard Rock, DVDRip]
  • (2010) Green Day / Greatest Hits (2CD) (Alternative, Punk Rock) [APE (image ...
  • (2010) Deep Purple / Deepest Purple: The Very Best Of Deep Purple [30th Ann ...
  • (Дискография 1968-2005) Deep Purple (Hard Rock,Heavy Metal,Progressive Rock ...
  • (Дискография 1969-2006) Deep Purple (Lives) (Hard Rock,Heavy Metal,Progress ...
  • (2008) VANESSA MAE / Star Mark Greatest Hits [2CD] (Neoclassical / Violin / ...
  • (Дискография 1968-2005) Deep Purple (Hard Rock,Heavy Metal,Progressive Rock ...
  • (2011) Queen / The Platinum Collection Greatest Hits [I, II, III] Japanese ...
  • (2007) Pink Floyd / Greatest Hits [Star Mark] (2 CD) (Progressive Rock, Ps ...
  • Deep Purple / Phoenix Rising / Rises over Japan [2011, Rock,Концерт, DVDRip ...
  • (2009, Cборник) Madonna / Greatest Hits [CD1 + CD2] (Pop) [APE (image+.cue) ...
  • Deep Purple With Orchestra / Live At Montreux [2011, Hard Rock, BDRip]
  • (2000) Парк Горького (Gorky Park) / The Best (Glam Metal/Hard Rock) [FLAC ...
  • (2008) Студия 80 / Придуманный Мир (Pop) [FLAC (image+.cue), lossless]
  • Информация
    Посетители, находящиеся в группе Гости, не могут оставлять комментарии к данной публикации.