вход на сайт

Имя пользователя :
Пароль :

Восстановление пароля Регистрация
(2010) Green Day / Greatest Hits (2CD) (Alternative, Punk Rock) [APE (image+.cue), lossless]
Рейтинг:
(голосов: 1)



[img]{THEME}/images/logopost.png[/img]



Исполнитель: Green Day
Страна: USA
Альбом: Greatest Hits
Тип альбома: Compilation
Год выпуска: 2010
Жанр: Alternative, Punk Rock
Аудиокодек: APE (*.ape)
Тип рипа: image+.cue
Битрейт: lossless
Продолжительность: 02:39:18

Об исполнителе (об издании): Green Day первоначально были частью панк-рок среды, сформировавшейся вокруг панк-клуба 924 Gilman Street (Беркли). Green Day продали более пятидесяти миллионов копий своих альбомов во всём мире. Их успех помог стать известными таким группам, как Sum 41 и Good Charlotte.

CD1▼
Продолжительность: 01:19:23

Tреклист:
01. Know Your Enemy (03:10)
02. American Idiot (02:56)
03. Bascet Case (03:05)
04. Suffocate (02:55)
05. Boulevard Of Broken Dreams (04:22)
06. Brain Stew (03:14)
07. Hitchina Ride (02:53)
08. Longview (04:00)
09. 21 Guns (05:21)
10. Warning(03:44)
11. Burnout (02:09)
12. Minority (02:51)
13. Good Riddance (Time Of Your Life) (02:34)
14. Wake Me Up When September Ends (04:45)
15. The Grouch (02:14)
16. Waiting (03:15)
17. St. Jimmy (02:57)
18. Stuck With Me (02:17)
19. Walking Alone (02:47)
20. Armatage Shanks (02:18)
21. J.A.R. (Jason Andrew Relva) (02:52)
22. All The Time (02:12)
23. Walking Contradiction (02:33)
24. Working Class Hero (04:23)
25. The Saints Are Coming (Green Day & U2) (03:24)

Лог создания рипа ▼TextExact Audio Copy V0.99 prebeta 5 from 4. May 2009

Отчёт EAC об извлечении, выполненном 17. сентября 2010, 12:17

Green Day / Greatest Hits (CD1)

Дисковод: ASUS DRW-1604P Adapter: 1 ID: 0

Режим чтения : Достоверность
Использование точного потока : Да
Отключение кэша аудио : Да
Использование указателей C2 : Нет

Коррекция смещения при чтении : 48
Способность читать области Lead-in и Lead-out : Да
Заполнение пропущенных сэмплов тишиной : Да
Удаление блоков с тишиной в начале и конце : Нет
При вычислениях CRC использовались нулевые сэмплы : Да
Интерфейс : Установленный внешний ASPI-интерфейс

Выходной формат : Monkeys Audio (без потерь)
Выбранный битрейт : High Lossless Compression
Качество : Высокий
Добавление ID3-тэга : Да
Утилита сжатия : C:Program FilesMonkeys AudioMAC.exe


TOC извлечённого CD

Трек | Старт | Длительность | Начальный сектор | Конечный сектор
---------------------------------------------------------------------
1 | 0:00.00 | 3:10.17 | 0 | 14266
2 | 3:10.17 | 2:56.25 | 14267 | 27491
3 | 6:06.42 | 3:05.11 | 27492 | 41377
4 | 9:11.53 | 2:55.48 | &n
903bdb86a11de94f8b439cc21309cecf2fb527e2(2010) Green Day / Greatest Hits (2CD) (Alternative, Punk Rock) [APE (image+.cue), lossless] (2010) Green Day / Greatest Hits (2CD) (Alternative, Punk Rock) [APE (image+.cue), lossless] " />

Аплоадер: Админ, дата: 31-01-2013, 13:00, торрент скачан: 359 раз

Понравилась раздача? Посмотрите эти:
  • (2000) Lenny Kravitz / Greatest Hits (Rock, Funk) [FLAC (image+.cue), lossl ...
  • (1993) Coverdale & Page / Coverdale & Page (EMI Holland)(Hard Rock) [FLAC ( ...
  • (2000) a-ha / Minor Earth | Major Sky (Alternative Rock, Synth-pop ) [FLAC ...
  • (2002) a-ha / Lifelines (Alternative Rock, Synth-pop ) [FLAC (image + .cue ...
  • (2002) Aerosmith / O, Yeah! Ultimate Aerosmith Hits (Japanese Edition) (2CD ...
  • (2013) Pinnick Gales Pridgen / Pinnick Gales Pridgen (Hard Rock, Heavy Blue ...
  • (2008) Deep Purple / Greatest Hits [Star Mark Compilations] (2CD) (Hard Roc ...
  • (2010) HIM / Greatest Hits (2CD) (Gothic Metal, Love Metal) [APE (image+.cu ...
  • (Дискография,1989-2010) Green Day (Punk-Rock|Pop-Rock) [MP3, 320/CBR, V2/VB ...
  • (2008) VANESSA MAE / Star Mark Greatest Hits [2CD] (Neoclassical / Violin / ...
  • (2006) Tokio / puls 200 (Alternative Rock / Pop Rock) [FLAC (image+.cue) lo ...
  • (2008) John Lennon - Greatest Hits (2CD) (Classic Rock) [FLAC (image+.cue) ...
  • (2005) плюм-Бум / Чистая правда (Funk, Reggae, Pop-Punk) [APE(image+.cue), ...
  • (2011) АукцЫон / Юла (Rock) [APE (image+.cue), lossless]
  • (2012) The Rasmus / The Rasmus (Alternative Rock/Melodic Rock) [FLAC (track ...
  • (2011) Queen / The Platinum Collection Greatest Hits [I, II, III] Japanese ...
  • (2007) Pink Floyd / Greatest Hits [Star Mark] (2 CD) (Progressive Rock, Ps ...
  • (2009, Cборник) Madonna / Greatest Hits [CD1 + CD2] (Pop) [APE (image+.cue) ...
  • (2011) КняZz / Письмо из Трансильвании (Punk-Rock) [APE (image+.сue), lossl ...
  • (2004) Ex-Сектор Газа / Огненный рай (Punk-Rock) [FLAC (image+.cue), lossle ...
  • Информация
    Посетители, находящиеся в группе Гости, не могут оставлять комментарии к данной публикации.