вход на сайт

Имя пользователя :
Пароль :

Восстановление пароля Регистрация
(2013) Jimi Hendrix / People, Hell and Angels (Psychedelic Rock, Blues Rock) [FLAC (tracks+.cue), lossless]
Рейтинг:
(голосов: 1)



[img]{THEME}/images/logopost.png[/img]



Исполнитель:Jimi Hendrix
Страна:USA
Альбом:People, Hell and Angels
Тип альбома:Студийный
Год выпуска:2013
Жанр:Psychedelic Rock, Blues Rock
Год первоначального издания альбома: 1968
Страна (Издатель, Каталожный номер): USA (Sony Music, 88765442851)
Аудиокодек: FLAC (*.flac)
Тип рипа: tracks+.cue
Битрейт: lossless
Продолжительность: 00:52:48

Tреклист:
01. Earth Blues [03:35]
02. Somewhere [04:06]
03. Hear My Train A Comin [05:42]
04. Bleeding Heart [03:59]
05. Let Me Move You [06:51]
06. Izabella [03:44]
07. Easy Blues [05:58]
08. Crash Landing [04:15]
09. Inside Out [05:05]
10. Hey Gypsy Boy [03:40]
11. Mojo Man [04:08]
12. Villanova Junction Blues [01:45]

Лог создания рипа ▼TextExact Audio Copy V1.0 beta 2 from 29. April 2011

EAC extraction logfile from 1. March 2013, 14:31

Jimi Hendrix / People, Hell and Angels

Used drive : TSSTcorpCDDVDW SH-222BB Adapter: 0 ID: 0

Read mode : Secure
Utilize accurate stream : Yes
Defeat audio cache : Yes
Make use of C2 pointers : No

Read offset correction : 6
Overread into Lead-In and Lead-Out : No
Fill up missing offset samples with silence : Yes
Delete leading and trailing silent blocks : No
Null samples used in CRC calculations : Yes
Used interface : Native Win32 interface for Win NT & 2000
Gap handling : Appended to previous track

Used output format : User Defined Encoder
Selected bitrate : 1024 kBit/s
Quality : High
Add ID3 tag : No
Command line compressor : C:Program Files (x86)Exact Audio CopyFlacflac.exe
Additional command line options : -8 -V -T "ARTIST=%artist%" -T "TITLE=%title%" -T "ALBUM=%albumtitle%" -T "DATE=%year%" -T "TRACKNUMBER=%tracknr%" -T "GENRE=%genre%" -T "PERFORMER=%albuminterpret%" -T "COMPOSER=%composer%" %haslyrics%--tag-from-file=LYRICS

TOC of the extracted CD

Track | Start | Length | Start sector | End sector
---------------------------------------------------------
1 | 0:00.00 | 3:34.40 | 0 | 16089
2 | 3:34.40 | 4:06.31 | 16090 | 34570
3 | 7:40.71 | 5:42.15 | 34571 | 60235
4 | 13:23.11 | 3:59.08 | 60236 | 78168
5 | 17:22.19 | 6:51.13 | 78169 | 109006
6 | 24:13.32 | 3:43.53 | 109007 | 125784
7 | 27:57.10 | 5:57.53 | 125785 | 152612
8 | 33:54.63 | 4:15.32 | 152613 | 171769
9 | 38:10.20 | 5:04.46 |
691485cb7a8fd62e645ace6085b53f247a55e570(2013) Jimi Hendrix / People, Hell and Angels (Psychedelic Rock, Blues Rock) [FLAC (tracks+.cue), lossless] (2013) Jimi Hendrix / People, Hell and Angels (Psychedelic Rock, Blues Rock) [FLAC (tracks+.cue), lossless] " />

Аплоадер: Админ, дата: 6-03-2013, 09:39, торрент скачан: 359 раз

Понравилась раздача? Посмотрите эти:
  • (2013) Buddy Guy / Rhythm & Blues (2CD) (Blues) [FLAC (image+.cue), Lossles ...
  • (2013) Innes Sibun / Lost In The Wilderness (Blues Rock, Rock) [FLAC (image ...
  • (2013) The Hamburg Blues Band / Friends For A LIVEtime (Blues Rock, Rock) [ ...
  • (2013) Leslie West / Still Climbing (Rock, Hard Rock, Blues Rock) [FLAC (im ...
  • (2013) Paul McCartney / New (Deluxe Edition) (Rock) [FLAC (image,+.cue), lo ...
  • (2013) Govt Mule / Shout! (2CD) (Blues Rock) [FLAC (image+.cue), Lossless]
  • (2013) Prodigy & The Alchemist / Albert Einstein (Underground Hip-Hop) [FLA ...
  • (2013) Fall Out Boy / Save Rock and Roll (Pop-Punk) [ALAC (tracks), lossles ...
  • (2007, 5 CDs Box set) VA / 100 Hits - Rock (Hard Rock, Classic Rock) [FLAC ...
  • (2012) Katie Melua / Secret Symphony (Jazz Pop, Vocal Jazz) [FLAC (tracks+. ...
  • (2011) B.B. King / Icon (Blues) [FLAC (tracks+.cue), lossless]
  • (2012) Mark Lanegan Band / Blues Funeral (Alternative Rock/Blues Rock) [FLA ...
  • (2012) Marconi Union / Different Colours (Post Rock, Downtempo, Ambient) [F ...
  • (1996) The Rasmus / Peep (Finnish Version) (Alternative Rock) [FLAC (tracks ...
  • (2012) Buckethead / Electric Sea (Experimental/Acoustic/Ambient/Rock) [FLAC ...
  • (2012) Les Friction / Les Friction (Alt. Rock/Neo-Classical/Orchestral) [FL ...
  • (2011) SeeS / The enD (Progressive/Math Metal) [FLAC (tracks+.cue), lossles ...
  • (2012) Our Lady Peace / Curve (Alternative/Rock) [FLAC (tracks+.cue), lossl ...
  • (2011) Terra Tenebrosa / The Tunnels (Atmospheric Sludge Post-Metal/Psyched ...
  • (2012) Nine Lashes / World We View (Alt.Rock/Alt.Metal/Christian) [FLAC (tr ...
  • Информация
    Посетители, находящиеся в группе Гости, не могут оставлять комментарии к данной публикации.