вход на сайт

Имя пользователя :
Пароль :

Восстановление пароля Регистрация
(2013) Pinnick Gales Pridgen / Pinnick Gales Pridgen (Hard Rock, Heavy Blues Rock) [FLAC (image+.cue), lossless]
Рейтинг:
(голосов: 1)



[img]{THEME}/images/logopost.png[/img]



Исполнитель:Pinnick Gales Pridgen
Страна:USA
Альбом:Pinnick Gales Pridgen
Тип альбома:Студийный
Год выпуска:2013
Жанр:Hard Rock, Heavy Blues Rock
Страна (Издатель, Каталожный номер): USA (Magna Carta, MA-91116-2)
Аудиокодек: FLAC (*.flac)
Тип рипа: image+.cue
Битрейт: lossless
Log-файлы: Присутствуют.
Наличие сканов в содержимом раздачи: Да. (JPG, 48 MB)
Продолжительность: 01:12:07

Tреклист:
01. Collateral Damage - 05:09
02. Angels and Aliens - 06:16
03. For Jasmine - 01:18
04. Hang On, Big Brother - 05:08
05. Wishing Well - 05:57
06. Hate Crime - 03:09
07. Lascivious - 05:18
08. Black Jeans - 06:47
09. Sunshine Of Your Love - 06:53
10. Been So High (The Only Place To Go Is Down) - 10:23
11. Me And You - 04:45
12. The Greatest Love - 05:45
13. Frightening - 05:20

Лог создания рипа ▼TextExact Audio Copy V0.99 prebeta 5 from 4. May 2009

Отчёт EAC об извлечении, выполненном 23. февраля 2013, 13:17

Pinnick Gales Pridgen / Pinnick Gales Pridgen

Дисковод: PLEXTOR DVDR PX-880SA Adapter: 1 ID: 0

Режим чтения : Достоверность
Использование точного потока : Да
Отключение кэша аудио : Да
Использование указателей C2 : Нет

Коррекция смещения при чтении : 6
Способность читать области Lead-in и Lead-out : Нет
Заполнение пропущенных сэмплов тишиной : Да
Удаление блоков с тишиной в начале и конце : Нет
При вычислениях CRC использовались нулевые сэмплы : Да
Интерфейс : Установленный внешний ASPI-интерфейс

Выходной формат : Пользовательский кодировщик
Выбранный битрейт : 1024 kBit/s
Качество : Высокий
Добавление ID3-тэга : Нет
Утилита сжатия : C:Program FilesExact Audio CopyFLACFLAC.EXE
Дополнительные параметры : -10 -V -T "ARTIST=%a" -T "TITLE=%t" -T "ALBUM=%g" -T "DATE=%y" -T "TRACKNUMBER=%n" -T "GENRE=%m" -T "COMMENT=%e" %s -o %d

TOC извлечённого CD

Трек | Старт | Длительность | Начальный сектор | Конечный сектор
---------------------------------------------------------------------
1 | 0:00.00 | 5:07.33 | 0 | 23057
2 | 5:07.33 | 6:17.06 | 23058 | 51338
3 | 11:24.39 | 1:17.62 | 51339 | 57175
4 | 12:42.26 | 5:08.33 | 57176 | 80308
5 | 17:50.59 | 5:56.46 | 80309 | 107054
6 | 23:47.30 | 3:09.32 | 107055 | 121261
7 | 26:56.62 | 5:17.48 | 121262 | 145084
8 | 32:14
b4a8e9cd521927c11640bdd4e61ea33203a92cc9(2013) Pinnick Gales Pridgen / Pinnick Gales Pridgen (Hard Rock, Heavy Blues Rock) [FLAC (image+.cue), lossless] (2013) Pinnick Gales Pridgen / Pinnick Gales Pridgen (Hard Rock, Heavy Blues Rock) [FLAC (image+.cue), lossless] " />

Аплоадер: Админ, дата: 5-03-2013, 20:52, торрент скачан: 359 раз

Понравилась раздача? Посмотрите эти:
  • (1993) Coverdale & Page / Coverdale & Page (EMI Holland)(Hard Rock) [FLAC ( ...
  • (2000) a-ha / Minor Earth | Major Sky (Alternative Rock, Synth-pop ) [FLAC ...
  • (2003) Eagles / The Very Best Of Eagles (Rock) ( 2CD Warner USA) [FLAC (ima ...
  • (2012) Sting / Fifteen Healing Bites (Pop Rock)(Chinese Dragon) [FLAC (trac ...
  • (2011) Jim McCarty / Jim McCarty and Friends (Live Callahans) (Rockin Blues ...
  • (2013) Hadden Sayers / Rolling Soul (Blues-Rock) [FLAC (image+.cue), lossle ...
  • (2013) Loc-Dog & Tony VA / Все знают всё (Rap, Hip-Hop) [FLAC (Tracks+.Cue ...
  • (2013) Devon Allman / Turquoise (Blues-Rock) [FLAC (image+.cue), lossless]
  • (2012) Mike Snowden / Cigar Box Guitar Evil (Blues-Rock) [FLAC (image+.cue) ...
  • (2013) Krokus / Dirty Dynamite (Hard Rock) [FLAC (image+.cue), lossless]
  • (2010) Schiller / Breathless (Electronic) [FLAC (image+.cue), lossless]
  • (2010) БИ-2 / О чём говорят мужчины (Pop-Rock) [FLAC (image + .cue), lossle ...
  • (1997) Jazz Cafe / Simple Pleasures (Jazz, instrumental) [FLAC (image+.сue ...
  • (Дискография, 2006-2011) Светлана Копылова (Православная песня) [FLAC (imag ...
  • (2012) The Rasmus / The Rasmus (Alternative Rock/Melodic Rock) [FLAC (track ...
  • (1993) Mireille Mathieu / Chante Piaf (Pop) [FLAC (tracks+.cue), lossless]
  • (2012) The Blues Overdrive / The Blues Overdrive (Blues-Rock) [FLAC (image+ ...
  • (2012) Gary Clark Jr. / Blak and Blu (Blues, Rock) [FLAC (image+.cue), loss ...
  • (2012) The Rockin Blues Express (feat. John Gumby Goodwin) / The Rockin Blu ...
  • (2012) The Rasmus / The Rasmus (Tour Edition) FLAC (tracks+.cue), lossless
  • (2011) Ассаи / ОМ (Rap) [FLAC (tracks+.cue), lossless]
  • (2012) Strange Contact / Retro (Synthpop) [FLAC (image+.сue), lossless]
  • (2012) Ария / Live In Studio (Heavy Metal) [FLAC (image+.сue), lossless]
  • (2008) Nirvana / The Best Of (Grunge, Alternative) [FLAC (image+.сue), loss ...
  • (2012) Walter Trout / Blues For The Modern Daze (Blues, Blues Rock) [FLAC ( ...
  • Информация
    Посетители, находящиеся в группе Гости, не могут оставлять комментарии к данной публикации.