вход на сайт

Имя пользователя :
Пароль :

Восстановление пароля Регистрация
(Дискография, 2006-2012) Angels&Airwaves (AVA) (Alternative) [FLAC(tracks+.cue), Lossless]
Рейтинг:
(голосов: 1)



[img]{THEME}/images/logopost.png[/img]



Дискография
Исполнитель: Angels & Airwaves
Страна: the USA
Жанр: Alternative, Space Rock, Art Rock
Аудиокодек:FLAC (*.flac)
Тип рипа: tracks+.cue
Битрейт: lossless
Лог файлы: присутствуют
Продолжительность: 04:45:53

Об исполнителе: Angels & Airwaves — проект, созданный вокалистом группы Blink-182, Томом ДеЛонгом. Его друг и бывший гитарист Box Car Racer Дэвид Кеннеди, барабанщик Атом Уиллард, ранее игравший в The Offspring и бывший бас-гитарист Distillers Райан Синн — стали другими участниками группы.

Студийные альбомы:▼
"2006 – We Don’t Need To Whisper (FLAC (tracks+.cue), Lossless)" ▼

Продолжительность: 00: 54:28

Tреклист:
01. Valkyrie Missile (6:39)
02. Distraction (5:36)
03. Do It For Me Now (4:34)
04. The Adventure (5:13)
05. A Littles Enough (4:45)
06. The War (5:08)
07. The Gift (5:02)
08. It Hurts (4:15)
09. Good Day (4:30)
10. Start The Machine (4:12)
11. Do It For Me Now (Live Bonus Track) (4:39)
Лог создания рипа ▼Text Exact Audio Copy V0.99 prebeta 4 from 23. January 2008

EAC extraction logfile from 13. April 2009, 13:14

Angels & Airwaves / We Dont Need To Whisper

Used drive : ASUS DRW-1608P2S Adapter: 0 ID: 0

Read mode : Secure
Utilize accurate stream : Yes
Defeat audio cache : Yes
Make use of C2 pointers : No

Read offset correction : 48
Overread into Lead-In and Lead-Out : No
Fill up missing offset samples with silence : Yes
Delete leading and trailing silent blocks : No
Null samples used in CRC calculations : Yes
Used interface : Installed external ASPI interface
Gap handling : Appended to previous track

Used output format : User Defined Encoder
Selected bitrate : 320 kBit/s
Quality : High
Add ID3 tag : No
Command line compressor : C:Program FilesExact Audio CopyFLACFLAC.EXE
Additional command line options : -8 -V -T "ARTIST=%a" -T "TITLE=%t" -T "ALBUM=%g" -T "DATE=%y" -T "TRACKNUMBER=%n" -T "GENRE=%m" -T "COMMENT=EAC FLAC -8" %s

TOC of the extracted CD

Track | Start | Length | Start sector | End sector
---------------------------------------------------------
1 | 0:00.00 | 6:39.34 | 0 | 29958
2 | 6:39.34 | 5:36.07 | 29959 | 55165
3 | 12:15.41 | 4:33.63 | 55166 | 75703
4 | 16:49.29 | 5:12.40 | 75704 | 99143
5 | 22:01.69 | 4:45.06 | 99144 | 120524
6 | 26:47.00 | 5:07.70 | 120525 | 143619
7 | 31:54.70 | 5:02.05 | 143620 | 166274
8 | 36:57.00 | 4:14.70 | 166275 &nbs
eed9d27c21232915ef4200f671ce9a33067c0801(Дискография, 2006-2012) Angels&Airwaves (AVA) (Alternative) [FLAC(tracks+.cue), Lossless] (Дискография, 2006-2012) Angels&Airwaves (AVA) (Alternative) [FLAC(tracks+.cue), Lossless] " />

Аплоадер: Админ, дата: 2-03-2013, 17:38, торрент скачан: 359 раз

Понравилась раздача? Посмотрите эти:
  • (2013) Jimi Hendrix / People, Hell and Angels (Psychedelic Rock, Blues Rock ...
  • (2010) Zaz / Zaz (Nu jazz, Chanson, Soul) [FLAC (tracks+.cue), lossless]
  • (Дискография, 1994-2011) Cake (Indie Rock) [FLAC (tracks+.cue), losslesss]
  • (2011) Disturbed / The Lost Children (Alternative Metal) [FLAC (tracks+.cue ...
  • (2002) PPK (ППК) / ReLoad. Russian Trance (Trance) [FLAC (tracks+cue), loss ...
  • (2011) Linkin Park / LP Underground 11 (Alternative Rock) [FLAC (Image+cue) ...
  • (2009) Dead By Sunrise / Out Of Ashes (Japanese Edition) (Alternative Rock) ...
  • (2011) B.B. King / Icon (Blues) [FLAC (tracks+.cue), lossless]
  • (2012) Mark Lanegan Band / Blues Funeral (Alternative Rock/Blues Rock) [FLA ...
  • (2012) Tomandandy / Resident Evil: Retribution (Score, Soundtrack)[FLAC (tr ...
  • (1996) The Rasmus / Peep (Finnish Version) (Alternative Rock) [FLAC (tracks ...
  • (2012) Netsky / 2 (Drum & Bass, Dubstep) [FLAC (tracks+.cue), lossless]
  • (2006) The Rasmus / Shot (Single) (Alternative Rock) [FLAC (tracks+.cue), l ...
  • (2011) Linkin Park / Iridescent (Alternative Rock) [FLAC(image+.cue), lossl ...
  • (2011) Ляпис Трубецкой / Веселые картинки (Rock) [FLAC (tracks+.cue), lossl ...
  • (2011) Gandharva / Lord of the Universe (New Age, Classical, Erhu) [FLAC (t ...
  • (2011) Дельфин / Существо (Alternative|Experimental) [FLAC (tracks+.cue), l ...
  • (2011) Ленинград / Хна (Rock) [FLAC (tracks+.cue), lossless]
  • (2012) Les Friction / Les Friction (Alt. Rock/Neo-Classical/Orchestral) [FL ...
  • (2011) SeeS / The enD (Progressive/Math Metal) [FLAC (tracks+.cue), lossles ...
  • (2011) Downhere / On The Altar Of Love (Alternative Rock/Christian Rock) [F ...
  • (2012) Our Lady Peace / Curve (Alternative/Rock) [FLAC (tracks+.cue), lossl ...
  • (2012) KoRn feat. Skrillex / Chaos Lives In Everything (UK Promo) (Nu-metal ...
  • (2011) Phinehas / Thegodmachine (Metalcore) [FLAC (tracks+.cue), lossless]
  • (2011) Skindred / Union Black (Alternative Metal, Ragga-Metal) [FLAC (track ...
  • Информация
    Посетители, находящиеся в группе Гости, не могут оставлять комментарии к данной публикации.