вход на сайт

Имя пользователя :
Пароль :

Восстановление пароля Регистрация
(2013) Black Veil Brides / Wretched And Divine: The Story Of The Wild Ones (Post-Hardcore, Glam, Hard Rock) [FLAC (tracks+.cue), Lossless]
Рейтинг:
(голосов: 1)



[img]{THEME}/images/logopost.png[/img]




Исполнитель:Black Veil Brides
Страна: USA
Альбом:Wretched And Divine: The Story Of The Wild Ones
Тип альбома:Студийный
Год выпуска:2013
Жанр:Post-Hardcore, Glam, Hard Rock
Аудиокодек: FLAC (*.flac)
Тип рипа: tracks+.cue
Битрейт: lossless
Продолжительность: 00:51:16


Wikipedia | MySpace | Facebook | Official page

Tреклист:
01. Exordium (00:24)
02. I Am Bulletproof (03:34)
03. New Years Day 03:25)
04. F.E.A.R. Transmission 1: Stay Close (00:35)
05. Wretched And Divine (03:37)
06. We Dont Belong (03:36)
07. F.E.A.R. Transmission 2: Trust (00:20)
08. Devils Choir (02:57)
09. Resurrect The Sun (04:35)
10. Overture (01:38)
11. Shadows Die (05:25)
12. Abeyance (00:14
13. Days Are Numbered (03:40)
14. Done For You (02:33)
15. Nobodys Hero (03:35)
16. Lost It All (05:20)
17. F.E.A.R. Transmission 3: As War Fades (00:58)
18. In The End (03:48)
19. F.E.A.R: Final Transmission (00:54)

Лог создания рипа ▼TextExact Audio Copy V1.0 beta 3 from 29. August 2011

EAC extraction logfile from 9. January 2013, 15:36

Black Veil Brides / Wretched And Divine: The Story Of The Wild Ones

Used drive : TSSTcorpCDDVDW TS-L633C Adapter: 0 ID: 1

Read mode : Secure
Utilize accurate stream : Yes
Defeat audio cache : Yes
Make use of C2 pointers : No

Read offset correction : 6
Overread into Lead-In and Lead-Out : No
Fill up missing offset samples with silence : Yes
Delete leading and trailing silent blocks : No
Null samples used in CRC calculations : Yes
Used interface : Native Win32 interface for Win NT & 2000
Gap handling : Appended to previous track

Used output format : User Defined Encoder
Selected bitrate : 1024 kBit/s
Quality : High
Add ID3 tag : No
Command line compressor : C:Program Files (x86)Exact Audio CopyFlacflac.exe
Additional command line options : -8 -V -T "ARTIST=%artist%" -T "TITLE=%title%" -T "ALBUM=%albumtitle%" -T "DATE=%year%" -T "TRACKNUMBER=%tracknr%" -T "GENRE=%genre%" -T "PERFORMER=%albuminterpret%" -T "COMPOSER=%composer%" %haslyrics%--tag-from-file=LYRICS="%lyricsfile%"%haslyrics% -T "ALBUMARTIST=%albumartist%" -T "DISCNUMBER=%cdnumber%" -T "TOTALDISCS=%totalcds%" -T "TOTALTRACKS=%numtracks%" -T "COMMENT=%comment%" %source% -o %dest%


TOC of the extracted CD

Track | Start | Length | Start sector | End sector
---------------------------------------------------------
1 | 0:00.00 | 0:25.15 | 0 | 1889
2 | 0:25.15 | 3:34.05 | 1890 | 17944
3 | 3:59.20 | 3:24.70 | 17945 | 33314
4 | 7:24.15 | 0:35.28 | 33315 | &nb
e65e8e86e5ca917c25c5df5823c1c90c8b40b29e(2013) Black Veil Brides / Wretched And Divine: The Story Of The Wild Ones (Post-Hardcore, Glam, Hard Rock) [FLAC (tracks+.cue), Lossless] (2013) Black Veil Brides / Wretched And Divine: The Story Of The Wild Ones (Post-Hardcore, Glam, Hard Rock) [FLAC (tracks+.cue), Lossless] " />

Аплоадер: Админ, дата: 20-04-2013, 20:12, торрент скачан: 359 раз

Понравилась раздача? Посмотрите эти:
  • (2013) Leslie West / Still Climbing (Rock, Hard Rock, Blues Rock) [FLAC (im ...
  • (2013) Paul McCartney / New (Deluxe Edition) (Rock) [FLAC (image,+.cue), lo ...
  • (2013) Prodigy & The Alchemist / Albert Einstein (Underground Hip-Hop) [FLA ...
  • (2013) Fall Out Boy / Save Rock and Roll (Pop-Punk) [ALAC (tracks), lossles ...
  • (2013) Black Veil Brides / Wretched And Divine: The Story Of The Wild Ones ...
  • (2011) Disturbed / The Lost Children (Alternative Metal) [FLAC (tracks+.cue ...
  • (2007, 5 CDs Box set) VA / 100 Hits - Rock (Hard Rock, Classic Rock) [FLAC ...
  • (2012) Katie Melua / Secret Symphony (Jazz Pop, Vocal Jazz) [FLAC (tracks+. ...
  • (2012) Mark Lanegan Band / Blues Funeral (Alternative Rock/Blues Rock) [FLA ...
  • (2012) Marconi Union / Different Colours (Post Rock, Downtempo, Ambient) [F ...
  • (2012) Tomandandy / Resident Evil: Retribution (Score, Soundtrack)[FLAC (tr ...
  • (1996) The Rasmus / Peep (Finnish Version) (Alternative Rock) [FLAC (tracks ...
  • (2012) Buckethead / Electric Sea (Experimental/Acoustic/Ambient/Rock) [FLAC ...
  • (2012) Les Friction / Les Friction (Alt. Rock/Neo-Classical/Orchestral) [FL ...
  • (2011) SeeS / The enD (Progressive/Math Metal) [FLAC (tracks+.cue), lossles ...
  • (2012) Bleeding Through / The Great Fire (Symphonic Metalcore/Hardcore) [FL ...
  • (2012) Our Lady Peace / Curve (Alternative/Rock) [FLAC (tracks+.cue), lossl ...
  • (2011) Terra Tenebrosa / The Tunnels (Atmospheric Sludge Post-Metal/Psyched ...
  • (2012) Nine Lashes / World We View (Alt.Rock/Alt.Metal/Christian) [FLAC (tr ...
  • (2012) For Today / Immortal (Metalcore, Hardcore, Christian) [FLAC (tracks+ ...
  • Информация
    Посетители, находящиеся в группе Гости, не могут оставлять комментарии к данной публикации.