вход на сайт

Имя пользователя :
Пароль :

Восстановление пароля Регистрация
(2013) Paramore / Paramore (Japan Edition) (Alternative Rock) [FLAC (tracks+.cue), Lossless]
Рейтинг:
(голосов: 1)



[img]{THEME}/images/logopost.png[/img]




Исполнитель:Paramore
Страна: USA
Альбом:Paramore (Japan Edition)
Тип альбома:Студийный
Год выпуска:2013
Жанр:Alternative Rock
Издатель (лейбл): Fueled By Ramen
Номер по каталогу: WPCR-14900
Аудиокодек: FLAC (*.flac)
Тип рипа: tracks+.cue
Битрейт: lossless
Продолжительность: 01:10:05


Wikipedia | MySpace | lastfm | Official page

Tреклист:
▼01. Fast In My Car (03:43)
02. Now (04:07)
03. Grow Up (03:51)
04. Day Dreaming (04:31)
05. Moving On (Interlude) (01:30)
06. Aint It Fun (04:57)
07. Part II (04:41)
08. Last Hope (05:10)
09. Still Into You (03:36)
10. Ankle Biters (02:18)
11. Holiday (Interlude) (01:10)
12. Proof (03:15)
13. Hate To See Your Heart Break (05:09)
14. (One Of Those) Crazy Girls (03:33)
15. Im Not Angry Anymore (Interlude) (00:53)
16. Be Alone (03:40)
17. Future (07:53)

Japan Bonus Tracks:
18. Escape Route (02:58)
19. Native Tongue (03:13)

Лог создания рипа ▼TextX Lossless Decoder version 20130407 (143.0)

XLD extraction logfile from 2013-04-10 10:00:59 -0700

Paramore / Paramore (Japan Edition)

Used drive : HL-DT-ST DVDRW GS23N (revision SB00)
Media type : Pressed CD

Ripper mode : XLD Secure Ripper
Disable audio cache : OK for the drive with a cache less than 1375KiB
Make use of C2 pointers : NO
Read offset correction : 667
Max retry count : 100
Gap status : Analyzed, Appended (except HTOA)

TOC of the extracted CD
Track | Start | Length | Start sector | End sector
---------------------------------------------------------
1 | 00:00:00 | 03:42:52 | 0 | 16701
2 | 03:42:52 | 04:07:31 | 16702 | 35257
3 | 07:50:08 | 03:50:68 | 35258 | 52575
4 | 11:41:01 | 04:31:02 | 52576 | 72902
5 | 16:12:03 | 01:30:23 | 72903 | 79675
6 | 17:42:26 | 04:56:40 | 79676 | 101915
7 | 22:38:66 | 04:41:17 | 101916 | 123007
8 | 27:20:08 | 05:09:74 | 123008 | 146256
9 | 32:30:07 | 03:36:01 | 146257 | 162457
10 | 36:06:08 | 02:17:70 | 162458 | 172802
11 | 38:24:03 | 01:09:50 | 172803 | 178027
12 | 39:33:53 | 03:15:30 | 178028 | 192682
13 | 42:49:08 | 05:09:22 | 192683 | 215879
14 | 47:58:30 | 03:32:42 | 215880 | 231821
15 | 51:30:72 | 00:52:45 | 231822 | 235766
16 | 52:23:42 | 03:40:06 | 235767 | 252272
17 | 56:03:48 | 07:52:70 | 252273
b4e69b978830631fdddbae6db57fcbba74d8b284(2013) Paramore / Paramore (Japan Edition) (Alternative Rock) [FLAC (tracks+.cue), Lossless] (2013) Paramore / Paramore (Japan Edition) (Alternative Rock) [FLAC (tracks+.cue), Lossless] " />

Аплоадер: Админ, дата: 15-04-2013, 20:18, торрент скачан: 359 раз

Понравилась раздача? Посмотрите эти:
  • (2013) Kanye West | Yeezus (Rap|Experimental Hip-Hop) [FLAC (tracks+.cue), ...
  • (2013) by M83, Anthony Gonzalez & Joseph Trapanese / Обливион / Oblivion (S ...
  • (2013) Paramore / Paramore (Japanese Edition) ( Pop Rock / Alt.Rock) [MP3, ...
  • (2013) Bullet For My Valentine / Temper Temper (Japanese Deluxe Edition) (M ...
  • (2013) Bon Jovi / What About Now (Deluxe Edition) (Hard Rock) [FLAC (tracks ...
  • (2013) Paramore / Paramore ( Pop Rock / Alt.Rock) [MP3, 320/CBR]
  • (2007) GORILLAZ / D-Sides [Japan Edition] (Hip-Hop) [FLAC (image+cue), loss ...
  • (2009) Radiohead / Hail To The Thief [Collectors Edition: 2-nd CD] (Alterna ...
  • (2011) Hollywood Undead / American Tragedy (Deluxe Edition) (Alternative/Hi ...
  • (2011) Moby / Destroyed (Electronic, Downtempo, Ambient) [FLAC (tracks+.cue ...
  • (2009) Dead By Sunrise / Out Of Ashes (Japanese Edition) (Alternative Rock) ...
  • (2012) Bruce Springsteen / Wrecking Ball (Folk Rock) [FLAC (tracks+.cue),l ...
  • (2008) Eric Clapton / 461 Ocean Boulevard (Deluxe Edition, 2CD, Japan SHM-C ...
  • (2012) Norah Jones / Little Broken Hearts (Vocal Jazz, Alternative Rock) [F ...
  • (2009) Paul Cardall / Sacred Piano (New Age) [FLAC (tracks+.cue), lossless] ...
  • (2012) Linkin Park / Living Things (Japan Edition) (Alternative, Rap-Rock) ...
  • (2012) Hans Zimmer / The Dark Knight Rises (Film score) [FLAC (tracks+.cu ...
  • (2012) Linkin Park / LP Underground 12 (Alternative Rock) [FLAC (tracks+.cu ...
  • (2008) Scars on Broadway / Scars on Broadway (Japan Edition) (Alt.Metal/Exp ...
  • (2012) The Cranberries / Roses (Alternative Rock / Pop-Rock) [FLAC (tracks+ ...
  • (2012) Lana Del Rey / Born To Die (Indie Pop) [FLAC (tracks+.cue), lossless ...
  • (2012) Young Guns / Bones (Alternative Rock) [FLAC (tracks +.cue), lossless ...
  • (2012) Switchfoot / Vice Re-Verses (Remixes) (Alternative, Christian Rock, ...
  • (2011) 7eventh Time Down / Alive In You (Alternative Rock/Modern Rock/Chris ...
  • (2012) No Doubt / Push And Shove (Deluxe Edition) (2 CD) (Alternative Rock, ...
  • Информация
    Посетители, находящиеся в группе Гости, не могут оставлять комментарии к данной публикации.