вход на сайт

Имя пользователя :
Пароль :

Восстановление пароля Регистрация
(2013) Spocks Beard / Brief Nocturnes And Dreamless Sleep (Progressive Rock) [FLAC (image+.cue), lossless]
Рейтинг:
(голосов: 1)



[img]{THEME}/images/logopost.png[/img]



Исполнитель: Spocks Beard
Страна: USA
Альбом: Brief Nocturnes And Dreamless Sleep
Тип альбома: Студийный
Год выпуска: 2013
Жанр: Progressive Rock
Страна (Издатель, Каталожный номер): Германия (InsideOut Music, 0506470)
Аудиокодек: FLAC (*.flac)
Тип рипа: image+.cue
Битрейт: lossless
Наличие сканов в содержимом раздачи: Да. (jpg, 96dpi, 20,9mb)
Продолжительность: 01:16:45

Об исполнителе (об издании): Spock’s Beard — американская группа, играющая в стиле прогрессивного рока 70-х годов. Продолжатели традиций таких групп как Yes, Genesis, King Crimson, Gentle Giant.
Название группы переводится как «Борода Спока». Оно придумано Нилом Морсом (англ. en:Neal Morse) и его братом Аланом (англ. en:Alan Morse) (гитара, вокал). Название группы было придумано после одной вечеринки, когда Алан Морс сказал своему брату, Нилу «Это похоже на то, как будто мы были в другой вселенной, прямо как в том эпизоде сериала Star Trek, в котором у Спока была борода. А что, кажется, неплохое название для группы?» Когда пришло время выбирать реальное название группы, то из более чем ста вариантов, они выбрали именно это. 21 Ноября на официальном сайте было объявлено о том, что ник ДВиржилио покинул состав группы. Новым вокалистом стал Тед Леонард, а за ударную установку сел туровой ударник группы Джимми Киган. Вместе с тем группа начала запись нового альбома, который ожидается летом 2012.

Tреклист:
01. Hiding Out (7:15)
02. I Know Your Secret (7:42)
03. A Treasure Abandoned (8:57)
04. Submerged (5:00)
05. Afterthoughts (6:09)
06. Something Very Strange (8:23)
07. Waiting For Me (12:36)
08. The Man Youre Afraid You Are (7:14)
09. Down A Burning Road (6:52)
10. Wish I Were Here (6:37)

Лог создания рипа ▼TextExact Audio Copy V1.0 beta 3 from 29. August 2011

EAC extraction logfile from 7. April 2013, 2:02

Spocks Beard / Brief Nocturnes and Dreamless Sleep (0506470)

Used drive : MATSHITABD-CMB UJ242AS Adapter: 0 ID: 1

Read mode : Secure
Utilize accurate stream : Yes
Defeat audio cache : Yes
Make use of C2 pointers : No

Read offset correction : 103
Overread into Lead-In and Lead-Out : No
Fill up missing offset samples with silence : Yes
Delete leading and trailing silent blocks : No
Null samples used in CRC calculations : Yes
Used interface : Installed external ASPI interface

Used output format : User Defined Encoder
Selected bitrate : 1024 kBit/s
Quality : High
Add ID3 tag : Yes
Command line compressor : C:Program Files (x86)Exact Audio CopyFlacflac.exe
Additional command line options : -V -8 -T "Date=%year%" -T "Genre=%genre%" %source%

TOC of the extracted CD

Track | Start | Length | Start sector | End sector
---------------------------------------------------------
1 | 0:00.00 | 7:14.46 | 0 | 32595
2 | 7:14.46 | 7:42.12 | 32596 | 67257
3 | 14:56.58 | 8:56.54 | 67258 | 107511
4 | 23:53.37 | 5:00.28 | 107512 |&n
5915e30504a69b25acf25525f6eb01348d349955(2013) Spocks Beard / Brief Nocturnes And Dreamless Sleep (Progressive Rock) [FLAC (image+.cue), lossless] (2013) Spocks Beard / Brief Nocturnes And Dreamless Sleep (Progressive Rock) [FLAC (image+.cue), lossless] " />

Аплоадер: Админ, дата: 27-04-2013, 12:08, торрент скачан: 359 раз

Понравилась раздача? Посмотрите эти:
  • (1996) George Michael / Older (1st Press Japan) (Electronic, Pop/Rock) [FLA ...
  • (1996) Константин Никольский / Один взгляд назад (Rock ) [APE (image + .cu ...
  • (2000) The Beatles / 1 (Rock) [FLAC (image+.cue), lossless]
  • (2013) Russkaja - Energia! (Folk / Ska / Rock), [FLAC (image+.cue), lossles ...
  • (2013) Yes / Close To The Edge (1972, remixed, CD+Blu-ray) (Progressive Roc ...
  • (2013) Buddy Guy / Rhythm & Blues (2CD) (Blues) [FLAC (image+.cue), Lossles ...
  • (2013) Chris Norman (ex. Smokie) / There And Back (Pop Rock) [FLAC (image+. ...
  • (2013) Innes Sibun / Lost In The Wilderness (Blues Rock, Rock) [FLAC (image ...
  • (2013) The Rolling Stones / Sweet Summer Sun. Hyde Park Line (DVD+2CD) (Roc ...
  • (2013) The Hamburg Blues Band / Friends For A LIVEtime (Blues Rock, Rock) [ ...
  • (2013) Leslie West / Still Climbing (Rock, Hard Rock, Blues Rock) [FLAC (im ...
  • (2013) Paul McCartney / New (Deluxe Edition) (Rock) [FLAC (image,+.cue), lo ...
  • (2013) Elton John / The Diving Board (Rock, Pop Rock) [FLAC (image+.cue), L ...
  • (2013) Govt Mule / Shout! (2CD) (Blues Rock) [FLAC (image+.cue), Lossless]
  • (2012) The Bryan Ferry Orchestra / The Jazz Age (Jazz) [FLAC (image+.cue), ...
  • (2013) Linkin Park & Steve Aoki / A Light That Never Comes (Electronic Rock ...
  • (Дискография, 2008 - 2013) Empire Of The Sun (Synthpop, Electronic) [FLAC ...
  • (2013) Depeche Mode - Heaven (CD Maxi-Single) (Synthpop) [FLAC (image+.cue) ...
  • (2011) Linkin Park / LP Underground 11 (Alternative Rock) [FLAC (Image+cue) ...
  • (2012) Uriah Heep / Logical Revelations (Hard Rock) [FLAC (image +.cue), lo ...
  • (2012) Morten Harket / Out Of My Hands (Pop) [FLAC (image+.cue), lossless]
  • (2012) Marconi Union / Different Colours (Post Rock, Downtempo, Ambient) [F ...
  • (2012) Christina Aguilera / The Best (Unofficial) (Pop) [FLAC (image+.cue), ...
  • (2011) Volumes / Via (Progressive Metalcore/Math Metal) [FLAC (image+.cue), ...
  • (2012) Fox / 2012 (Melodic Hard Rock) [FLAC (image +.cue), lossless]
  • Информация
    Посетители, находящиеся в группе Гости, не могут оставлять комментарии к данной публикации.