вход на сайт

Имя пользователя :
Пароль :

Восстановление пароля Регистрация
(1999) Mallet / Roll Mallet Roll by Mallet (Hard Rock, Arena Rock) [APE (image+.cue), lossless]
Рейтинг:
(голосов: 1)



[img]{THEME}/images/logopost.png[/img]




Исполнитель:Mallet
Страна: Германия
Альбом: Roll Mallet Roll by Mallet
Жанр: Hard Rock, Arena Rock
Тип альбома: Студийный
Год выпуска: 1999
Аудиокодек: APE (image+.cue)
Битрейт: lossless
Log-Файл: Присутствует
Продолжительность: 01:06:29


Об исполнителе
▼" Roll Mallet Roll is release №6 brought to the public by Wiesbaden rock heros Mallet. This album is widely considered by critics and fans to capture the creative peak of bands career.
Note: Only Achim Reichel is entitled and talented enough to recite lines like NaNaNaaNaNaaNaNa seriously. Nevertheless album is a killer!" [email protected]

All songs by Mallet, except "Tanz der Schweine" by Peter Tschaikowsky

Mario: "Handmade music keeps you alive!"

Состав группы
Jurgen Rehberg — вокал, гитара, клавиши
Manfred Dunzl — вокал, бас-гитара
Mario Gerhard — ударные



Roll Mallet Roll by Mallet




Tреклист
01. Whats the difference between black & white (04:42)
02. Roll Mallet roll (04:54)
03. Heaven (08:55)
04. I wanna be with you (04:30)
05. Goodbye, farewell, bye bye (04:18)
06. The right answer (04:00)
07. So long (04:31)
08. Tanz der Schweine (01:42)
09. Passion to dance (04:02)
10. Dideldidoo (04:13)
11. Take me far away (04:43)
12. Cruisin cowboy (03:51)
13. Lullaby for Sally (07:40)
14. Heaven (acoustic-version) (04:21)


Отчет EAC▼TextExact Audio Copy V1.0 beta 3 from 29. August 2011

Отчёт EAC об извлечении, выполненном 12. февраля 2013, 14:15

Mallet / Roll Mallet Roll

Дисковод: Optiarc DVD RW AD-7280S Adapter: 3 ID: 0

Режим чтения : Достоверность
Использование точного потока : Да
Отключение кэша аудио : Да
Использование указателей C2 : Нет

Коррекция смещения при чтении : 48
Способность читать области Lead-in и Lead-out : Нет
Заполнение пропущенных сэмплов тишиной : Да
Удаление блоков с тишиной в начале и конце : Нет
При вычислениях CRC использовались нулевые сэмплы : Да
Интерфейс : Встроенный Win32-интерфейс для Win NT/2000

Выходной формат : Внутренние WAV-операции
Формат сэмплов : 44.100 Гц; 16 бит; стерео


TOC извлечённого CD

Трек | Старт | Длительность | Начальный сектор | Конечный сектор
---------------------------------------------------------------------
1 | 0:00.00 | 4:42.68 | 0 | 21217
2 | 4:42.68 | 4:54.33 | 21218 | 43300
3 | 9:37.26 | 8:57.57 | 43301 | 83632
4 | 18:35.08 | 4:32.16 | 83633 | 104048
5 | 23:07.24 | 4:20.08 | 104049 | 123556
6 | 27:27.32 | 4:02.41 | 123557 | 141747
7 | 31:29.73 | 4:33.73 |&
7343c47320cfa098246abf1912f7b9f723fa6aaa(1999) Mallet / Roll Mallet Roll by Mallet (Hard Rock, Arena Rock) [APE (image+.cue), lossless] (1999) Mallet / Roll Mallet Roll by Mallet (Hard Rock, Arena Rock) [APE (image+.cue), lossless] " />

Аплоадер: Админ, дата: 22-04-2013, 10:33, торрент скачан: 359 раз

Понравилась раздача? Посмотрите эти:
  • (1988) Paul McCartney / Снова в СССР (Rock, Rock & Roll) [FLAC(image+.cue) ...
  • (2000) Lenny Kravitz / Greatest Hits (Rock, Funk) [FLAC (image+.cue), lossl ...
  • (1992) Smokie / The Story Of Smokie (2CD Set Germany, BMG, Ariola) (Rock) [ ...
  • (1993) Coverdale & Page / Coverdale & Page (EMI Holland)(Hard Rock) [FLAC ( ...
  • (2002) a-ha / Lifelines (Alternative Rock, Synth-pop ) [FLAC (image + .cue ...
  • (2013) Cliff Richard / The Fabulous Rock n Roll Songbook (Rock & Roll) [MP3 ...
  • Nyemiah Supreme ft. Timbaland / Rock & Roll [2013, Rap, Hip-Hop, WebRip]
  • (2013) Fall Out Boy / Save Rock and Roll (Punk Rock) [MP3, 320/CBR]
  • (2013) Krokus / Dirty Dynamite (Hard Rock) [FLAC (image+.cue), lossless]
  • (2011) Браво / Мода (Rock, Pop-Rock, Rock-n-Roll) [MP3, 320/CBR]
  • (Дискография, 2010-2012) Hardbone (Hard Rock) [MP3, 320/CBR]
  • (2011) Blues Cousins / KGB Blues (Blues Rock) [FLAC (image+.cue), lossless] ...
  • (2011) АукцЫон / Юла (Rock) [APE (image+.cue), lossless]
  • (Дискография, 1977-1980) Fandango (R&B, Melodic Hard Rock, Electric Pop Roc ...
  • (1989) Motley Crue / Dr. Feelgood (Hard Rock, Heavy metal, Glam metal) [APE ...
  • (1990) Suzi Quatro / Quatro (1974, Japan Edition) (Rock , Rock & Roll, Glam ...
  • ( 2001) Воскресение / Звездная коллекция (Rock) [FLAC (image+.cue) lossless ...
  • (2010, OST) AC/DC / Iron Man 2 (Hard Rock, Classic Rock) [APE (image+.cue) ...
  • (2000) Парк Горького (Gorky Park) / The Best (Glam Metal/Hard Rock) [FLAC ...
  • (2004) Ex-Сектор Газа / Огненный рай (Punk-Rock) [FLAC (image+.cue), lossle ...
  • Информация
    Посетители, находящиеся в группе Гости, не могут оставлять комментарии к данной публикации.