вход на сайт

Имя пользователя :
Пароль :

Восстановление пароля Регистрация
(2012) The Lumineers / The Lumineers (Indie-folk, Folk-rock) [FLAC (tracks+.cue), lossless]
Рейтинг:
(голосов: 1)



[img]{THEME}/images/logopost.png[/img]



Исполнитель: The Lumineers
Альбом: The Lumineers
Тип альбом: Студийный
Год выпуска: 2012
Жанр: Indie-folk, Folk-rock
Страна (Издатель, Штриховой код): USA(Dualtone Music Group, 602537125890)
Аудиокодек: FLAC (*.flac)
Тип рипа: tracks+.cue
Битрейт: lossless
Лог файлы: присутствуют
Наличие сканов в содержимом раздачи: Есть
Продолжительность: 00:42:19

Wikipedia| Official page | Facebook | last.fm

Об исполнителе: The Lumineers - американская фолк-рок группа, созданная в Denver, USA в 2005 году. Группу основали Wesley Schultz (гитара, вокал) и Jeremiah Fraites (ударные). Neyla Pekarek (виолончель, вокал) присоединилась к группе в 2010 году, откликнувшись на объявление в интернете. В 2012 году состав группы пополнили Stelth Ulvang (фортепиано) и Ben Wahamaki (бас-гитара). Их первый одноименный альбом, выпущенный 3 апреля 2012 года, достиг второй позиции в чарте Billboard 200.


Tреклист:
01. Flowers In Your Hair (1:51)
02. Classy Girls (2:46)
03. Submarines (2:43)
04. Dead Sea (4:08)
05. Ho Hey (2:43)
06. Slow It Down (5:07)
07. Stubborn Love (4:39)
08. Big Parade (5:28)
09. Charlie Boy (4:21)
10. Flapper Girl (3:15)
11. Morning Song (5:18)
Лог создания рипа ▼Text
X Lossless Decoder version 20120226 (139.1)

XLD extraction logfile from 2012-04-02 21:58:01 +0000

The Lumineers / The Lumineers

Used drive : HL-DT-ST DVDRW GS23N (revision SB03)

Ripper mode : XLD Secure Ripper
Disable audio cache : OK for the drive with a cache less than 1375KiB
Make use of C2 pointers : NO
Read offset correction : 667
Max retry count : 100
Gap status : Analyzed, Appended (except HTOA)

TOC of the extracted CD
Track | Start | Length | Start sector | End sector
---------------------------------------------------------
1 | 00:00:00 | 01:50:42 | 0 | 8291
2 | 01:50:42 | 02:45:70 | 8292 | 20736
3 | 04:36:37 | 02:43:18 | 20737 | 32979
4 | 07:19:55 | 04:07:70 | 32980 | 51574
5 | 11:27:50 | 02:43:10 | 51575 | 63809
6 | 14:10:60 | 05:07:00 | 63810 | 86834
7 | 19:17:60 | 04:39:00 | 86835 | 107759
8 | 23:56:60 | 05:27:55 | 107760 | 132339
9 | 29:24:40 | 04:21:32 | 132340 | 151946
10 | 33:45:72 | 03:15:13 | 151947 | 166584
11 | 37:01:10 | 05:18:33 | 166585 | 190467

AccurateRip Summary
Disc not found in AccurateRip DB.

All Tracks
Album gain : -6.80 dB
Peak : 1.000000
Statistics
Read error : 0
Jitter error (maybe fixed) : 0
f8dfec3ef7c39618075a12ba3591b76f4200439c(2012) The Lumineers / The Lumineers (Indie-folk, Folk-rock) [FLAC (tracks+.cue), lossless] (2012) The Lumineers / The Lumineers (Indie-folk, Folk-rock) [FLAC (tracks+.cue), lossless] " />

Аплоадер: Админ, дата: 8-05-2013, 00:07, торрент скачан: 359 раз

Понравилась раздача? Посмотрите эти:
  • (2013) Kanye West | Yeezus (Rap|Experimental Hip-Hop) [FLAC (tracks+.cue), ...
  • (2013) Paramore / Paramore (Japan Edition) (Alternative Rock) [FLAC (tracks ...
  • (2013) Bullet For My Valentine / Temper Temper (Japanese Deluxe Edition) (M ...
  • (2012) Taylor Swift / Red (Target Exclusive Deluxe Edition) + Booklet (Pop ...
  • (2012) Владимир Кузьмин / Endorfin (Русский Рок) [FLAC (image+.cue), lossle ...
  • (2011) Moby / Destroyed (Electronic, Downtempo, Ambient) [FLAC (tracks+.cue ...
  • (2010) Sungha Jung / Perfect Blue (Acoustic, Fingerstyle Guitar) [FLAC (tra ...
  • (2011) Sungha Jung / Irony (Acoustic guitar, Fingerstyle) [FLAC (tracks+.cu ...
  • (2012) Bruce Springsteen / Wrecking Ball (Folk Rock) [FLAC (tracks+.cue),l ...
  • (2012) Norah Jones / Little Broken Hearts (Vocal Jazz, Alternative Rock) [F ...
  • (2012) Amy MacDonald / Life In A Beautiful Light (Deluxe Edition) (Acoustic ...
  • (2012) Hans Zimmer / The Dark Knight Rises (Film score) [FLAC (tracks+.cu ...
  • (2012) Lana Del Rey / Born to Die: The Paradise Edition (2 CD) (Indie Pop) ...
  • (2012) Mouse On Mars / Parastrophics (Leftfield, Abstract, Rhythmic Noise, ...
  • (2012) Linkin Park / LP Underground 12 (Alternative Rock) [FLAC (tracks+.cu ...
  • (2012) Holly Cole / Night (Vocal Jazz) [FLAC (tracks+.cue), lossless]
  • (2012) Ne-Yo / R.E.D. (Target Exclusive Edition) (R&B, Soul, Pop) [FLAC (tr ...
  • (2010) Enduser / 1-3 (DnB, Dubstep, Breakcore) [FLAC (tracks+.cue), lossles ...
  • (2012) Lana Del Rey / Born To Die (Indie Pop) [FLAC (tracks+.cue), lossless ...
  • (2012) The Fray / Scars & Stories (Alternative/Rock/Piano Rock) [FLAC (trac ...
  • (2012) Unheilig / Lichter der Stadt (Limited Edition, 2CD) (Industrial, Got ...
  • (2012) Young Guns / Bones (Alternative Rock) [FLAC (tracks +.cue), lossless ...
  • (2012) Switchfoot / Vice Re-Verses (Remixes) (Alternative, Christian Rock, ...
  • (2011) 7eventh Time Down / Alive In You (Alternative Rock/Modern Rock/Chris ...
  • (Дискография, 2008-2011) Bon Iver (Folk-rock, Indie-folk, Indie-rock) [FLAC ...
  • Информация
    Посетители, находящиеся в группе Гости, не могут оставлять комментарии к данной публикации.