вход на сайт

Имя пользователя :
Пароль :

Восстановление пароля Регистрация
(2013) Elton John / The Diving Board (Rock, Pop Rock) [FLAC (image+.cue), Lossless]
Рейтинг:
(голосов: 1)



[img]{THEME}/images/logopost.png[/img]



Исполнитель: Elton John
Страна: England
Альбом: The Diving Board
Тип альбома: Студийный
Год выпуска: 2013
Жанр: Rock, Pop Rock
Страна (Издатель, Каталожный номер): EU, Germany (Mercury, 3743914)
Аудиокодек: FLAC (*.flac)
Тип рипа: image+.cue
Битрейт: lossless
Продолжительность: 01:16:28

Об исполнителе (об издании): Новый студийный альбом

Tреклист:
01. Oceans Away - 3:58
02. Oscar Wilde gets Out - 4:35
03. A Town Called Jubilee - 4:30
04. The Ballad Of Blind Tom - 4:12
05. Dream #1 - 0:40
06. My Quicksand - 4:47
07. Cant Stay Alone Tonight - 4:49
08. Voyeur - 4:16
09. Home Again - 5:01
10. Take This Dirty Water - 4:25
11. Dream #2 - 0:43
12. The New Fever Waltz - 4:39
13. Mexican vacation (Kids In The Candlelight) - 3:34
14. Dream #3 - 1:37
15. The Diving Board - 5:59
16. Candlelit Bedroom - 4:14
17. Home Again - Live - 5:19
18. Mexican Vacation (Kids In The Candlelight) - Live - 4:28
19. The New Fever Waltz - Live - 4:42


Лог создания рипа ▼TextExact Audio Copy V1.0 beta 3 from 29. August 2011

EAC extraction logfile from 7. November 2013, 22:48

Elton John / The Diving Board

Used drive : ATAPI iHAS124 B Adapter: 2 ID: 0

Read mode : Secure
Utilize accurate stream : Yes
Defeat audio cache : Yes
Make use of C2 pointers : No

Read offset correction : 6
Overread into Lead-In and Lead-Out : No
Fill up missing offset samples with silence : Yes
Delete leading and trailing silent blocks : No
Null samples used in CRC calculations : Yes
Used interface : Native Win32 interface for Win NT & 2000

Used output format : User Defined Encoder
Selected bitrate : 1024 kBit/s
Quality : High
Add ID3 tag : No
Command line compressor : C:Program Files (x86)Exact Audio CopyFLACFLAC.EXE
Additional command line options : -8 -V -T "ARTIST=%artist%" -T "TITLE=%title%" -T "ALBUM=%albumtitle%" -T "DATE=%year%" -T "TRACKNUMBER=%tracknr%" -T "GENRE=%genre%" -T "PERFORMER=%albuminterpret%" -T "COMPOSER=%composer%" %haslyrics%--tag-from-file=LYRICS="%lyricsfile%"%haslyrics% -T "ALBUMARTIST=%albumartist%" -T "DISCNUMBER=%cdnumber%" -T "TOTALDISCS=%totalcds%" -T "TOTALTRACKS=%numtracks%" -T "COMMENT=%comment%" %source% -o %dest%


TOC of the extracted CD

Track | Start | Length | Start sector | End sector
---------------------------------------------------------
1 | 0:00.00 | 3:57.74 | 0 | 17848
2 | 3:57.74 | 4:35.23 | 17849 | 38496
3 | 8:33.22 | 4:29.39 | 38497 | 58710
4 | 13:02.61 | 4:12.09 | 58711 | 77619
5 | 17:14.70 | 0:39.50 | 77620 | 80594
6
778974573cc357fb0f419bf60b6f6dbbda77f3ee(2013) Elton John / The Diving Board (Rock, Pop Rock) [FLAC (image+.cue), Lossless] (2013) Elton John / The Diving Board (Rock, Pop Rock) [FLAC (image+.cue), Lossless] " />

Аплоадер: Админ, дата: 7-11-2013, 23:32, торрент скачан: 359 раз

Понравилась раздача? Посмотрите эти:
  • (2013) Yes / Close To The Edge (1972, remixed, CD+Blu-ray) (Progressive Roc ...
  • (2013) The Holmes Brothers / Brotherhood (Modern Electric Blues, Soul, Gosp ...
  • (2013) Buddy Guy / Rhythm & Blues (2CD) (Blues) [FLAC (image+.cue), Lossles ...
  • (2013) Innes Sibun / Lost In The Wilderness (Blues Rock, Rock) [FLAC (image ...
  • (2013) The Hamburg Blues Band / Friends For A LIVEtime (Blues Rock, Rock) [ ...
  • (2013) Leslie West / Still Climbing (Rock, Hard Rock, Blues Rock) [FLAC (im ...
  • (2013) Paul McCartney / New (Deluxe Edition) (Rock) [FLAC (image,+.cue), lo ...
  • (2013) Govt Mule / Shout! (2CD) (Blues Rock) [FLAC (image+.cue), Lossless]
  • (2013) Deep Purple / Perfect Stranger Live (2CD+DVD) (Hard Rock) [FLAC (ima ...
  • (2013) Prodigy & The Alchemist / Albert Einstein (Underground Hip-Hop) [FLA ...
  • (2013) Fall Out Boy / Save Rock and Roll (Pop-Punk) [ALAC (tracks), lossles ...
  • (2011) Disturbed / The Lost Children (Alternative Metal) [FLAC (tracks+.cue ...
  • (2011) Linkin Park / LP Underground 11 (Alternative Rock) [FLAC (Image+cue) ...
  • (2012) Katie Melua / Secret Symphony (Jazz Pop, Vocal Jazz) [FLAC (tracks+. ...
  • (2012) Mark Lanegan Band / Blues Funeral (Alternative Rock/Blues Rock) [FLA ...
  • (2012) Paul Van Dyk / Evolution (Progressive House, Trance) [FLAC (tracks+. ...
  • (2012) Marconi Union / Different Colours (Post Rock, Downtempo, Ambient) [F ...
  • (2012) Tomandandy / Resident Evil: Retribution (Score, Soundtrack)[FLAC (tr ...
  • (1996) The Rasmus / Peep (Finnish Version) (Alternative Rock) [FLAC (tracks ...
  • (2012) Buckethead / Electric Sea (Experimental/Acoustic/Ambient/Rock) [FLAC ...
  • (2012) Les Friction / Les Friction (Alt. Rock/Neo-Classical/Orchestral) [FL ...
  • (2011) SeeS / The enD (Progressive/Math Metal) [FLAC (tracks+.cue), lossles ...
  • (2012) Our Lady Peace / Curve (Alternative/Rock) [FLAC (tracks+.cue), lossl ...
  • (2012) Nine Lashes / World We View (Alt.Rock/Alt.Metal/Christian) [FLAC (tr ...
  • (2012) For Today / Immortal (Metalcore, Hardcore, Christian) [FLAC (tracks+ ...
  • Информация
    Посетители, находящиеся в группе Гости, не могут оставлять комментарии к данной публикации.