вход на сайт

Имя пользователя :
Пароль :

Восстановление пароля Регистрация
(2013) Linkin Park / Recharged (Electronic Rock / Electro House) [FLAC (image+.cue), Lossless]
Рейтинг:
(голосов: 1)



[img]{THEME}/images/logopost.png[/img]




Исполнитель:Linkin Park
Страна: USA
Альбом:Recharged
Тип альбома:Студийный
Год выпуска:2013
Жанр:Electronic Rock / Electro House
Издатель (лейбл): Warner Bros. Records
Номер по каталогу: 9362-49416-0
Аудиокодек: FLAC (*.flac)
Тип рипа: image+.cue
Битрейт: lossless
Продолжительность: 01:08:50



Tреклист:
[03:49] 01. A Light That Never Comes (Linkin Park X Steve Aoki)
[06:20] 02. Castle Of Glass (M. Shinoda Remix)
[05:09] 03. Lost In The Echo (Killsonik Remix)
[03:00] 04. Victimized (M. Shinoda Remix)
[04:00] 05. Ill Be Gone (Vice Remix) (feat. Pusha T)
[04:50] 06. Lies Greed Misery (Dirtyphonics Remix)
[05:28] 07. Roads Untraveled (Rad Omen Remix) (feat. Bun B)
[06:07] 08. Powerless (Enferno Remix)
[04:46] 09. Burn It Down (Tom Swoon Remix)
[06:00] 10. Until It Breaks (Datsik Remix)
[03:54] 11. Skin To Bone (Nick Catchdubs Remix) (feat. Cody B. Ware And Ryu)
[06:11] 12. Ill Be Gone (Schoolboy Remix)
[04:29] 13. Until It Breaks (Money Mark Headphone Remix)
[04:40] 14. A Light That Never Comes (Rick Rubin Reboot)

Лог создания рипа ▼TextExact Audio Copy V1.0 beta 3 from 29. August 2011

EAC extraction logfile from 30. October 2013, 21:39

Linkin Park / Recharged

Used drive : TSSTcorpCD/DVDW TS-L632D Adapter: 0 ID: 0

Read mode : Secure
Utilize accurate stream : Yes
Defeat audio cache : Yes
Make use of C2 pointers : No

Read offset correction : 6
Overread into Lead-In and Lead-Out : No
Fill up missing offset samples with silence : Yes
Delete leading and trailing silent blocks : No
Null samples used in CRC calculations : Yes
Used interface : Native Win32 interface for Win NT & 2000

Used output format : User Defined Encoder
Selected bitrate : 896 kBit/s
Quality : High
Add ID3 tag : No
Command line compressor : C:Program Files (x86)Exact Audio CopyFlacflac.exe
Additional command line options : -8 -V -T "Date=%year%" -T "Genre=%genre%" -T "COMMENT=ripped by sewerok®" %source%


TOC of the extracted CD

Track | Start | Length | Start sector | End sector
---------------------------------------------------------
1 | 0:00.00 | 3:49.68 | 0 | 17242
2 | 3:49.68 | 6:20.23 | 17243 | 45765
3 | 10:10.16 | 5:09.57 | 45766 | 68997
4 | 15:19.73 | 3:00.67 | 68998 | 82564
5 | 18:20.65 | 4:00.51 | 82565 | 100615
6 | 22:21.41 | 4:50.43 |&n
b97759281d0ab2d0b5e83f002bcf494762bbe04b(2013) Linkin Park / Recharged (Electronic Rock / Electro House) [FLAC (image+.cue), Lossless] (2013) Linkin Park / Recharged (Electronic Rock / Electro House) [FLAC (image+.cue), Lossless] " />

Аплоадер: Админ, дата: 4-11-2013, 20:34, торрент скачан: 359 раз

Понравилась раздача? Посмотрите эти:
  • (1996) George Michael / Older (1st Press Japan) (Electronic, Pop/Rock) [FLA ...
  • (2013) Paul McCartney / New (Deluxe Edition) (Rock) [FLAC (image,+.cue), lo ...
  • (2013) Linkin Park & Steve Aoki / A Light That Never Comes (Electronic Roc ...
  • (2013) Linkin Park & Steve Aoki / A Light That Never Comes (Electronic Rock ...
  • (2013) Linkin Park / Recharged (Alternative Rock, Electronic) [MP3, 320/CBR ...
  • (2012) Lazlo / Lazlo (Electro Swing, Nu Jazz, Electronic) [FLAC (tracks+.cu ...
  • (2012) Signum / Remixed (Trance) [FLAC (tracks+.cue), Lossless]
  • (2013) Allure / Kiss From The Past (The Remix Album) (Progressive Trance) [ ...
  • (2012) VA / Ibiza House Summer 2012 (House) [FLAC (tracks+.cue), lossless]
  • (2013) Linkin Park / Castle Of Glass (Alternative) [FLAC (image+.cue), Loss ...
  • (2013) Depeche Mode - Heaven (CD Maxi-Single) (Synthpop) [FLAC (image+.cue) ...
  • (2011) Depeche Mode / Personal Jesus 2011 Club Promo (Electronic, Synthpop) ...
  • (2011) Linkin Park / LP Underground 11 (Alternative Rock) [FLAC (Image+cue) ...
  • (2011) Armin van Buuren / Mirage The Remixes (Trance, Progressive Trance, P ...
  • (2012) Linkin Park / Burn It Down (Alternative Rock) (Single) [FLAC (image+ ...
  • (2012) Linkin Park / Living Things (Alternative Rock, Electronic Rock, Rap ...
  • (2012) Linkin Park / Living Things (Japan Edition) (Alternative, Rap-Rock) ...
  • (2012) George Michael / White Light (Pop, Electronic) [FLAC (image+.cue), l ...
  • (2010) Linkin Park / A Thousand Suns (Alternative, Electronic) [FLAC (track ...
  • (2011) Linkin Park / Iridescent (Alternative Rock) [FLAC(image+.cue), lossl ...
  • Информация
    Посетители, находящиеся в группе Гости, не могут оставлять комментарии к данной публикации.