вход на сайт

Имя пользователя :
Пароль :

Восстановление пароля Регистрация
(2013) Leslie West / Still Climbing (Rock, Hard Rock, Blues Rock) [FLAC (image+.cue), Lossless]
Рейтинг:
(голосов: 1)



[img]{THEME}/images/logopost.png[/img]



Исполнитель: Leslie West
Страна: USA
Альбом: Still Climbing
Тип альбома: Студийный
Год выпуска: 2013
Жанр: Rock, Hard Rock, Blues Rock
Страна (Издатель, Каталожный номер): EU UK (Provogue Records, PRD74055)
Аудиокодек: FLAC (*.flac)
Тип рипа: image+.cue
Битрейт: lossless
Продолжительность: 00:41:47

Об исполнителе (об издании): Американский рок гитарист, певец и автор песен, известный как основатель рок группы Mountain

Tреклист:
01. Dyin Since The Day I Was Born - 4:17
02. Busted, Disgusted or Dead - 3:23
03. Fade Into You - 4:08
04. Not Over You At All - 4:28
05. Tales Of Woe - 3:16
06. Feeling Good - 4:12
07. Hatfield or McCoy - 3:49
08. When a Man Loves a Woman - 5:10
09. Long Red - 3:41
10. Dont Ever Let Me Go - 3:52
11. Rev Jones Time (Somewhere over the Rainbow) - 1:32

Лог создания рипа ▼TextExact Audio Copy V1.0 beta 3 from 29. August 2011

EAC extraction logfile from 14. November 2013, 21:49

Leslie West / Still Climbing

Used drive : ATAPI iHAS124 B Adapter: 2 ID: 0

Read mode : Secure
Utilize accurate stream : Yes
Defeat audio cache : Yes
Make use of C2 pointers : No

Read offset correction : 6
Overread into Lead-In and Lead-Out : No
Fill up missing offset samples with silence : Yes
Delete leading and trailing silent blocks : No
Null samples used in CRC calculations : Yes
Used interface : Native Win32 interface for Win NT & 2000

Used output format : User Defined Encoder
Selected bitrate : 1024 kBit/s
Quality : High
Add ID3 tag : No
Command line compressor : C:Program Files (x86)Exact Audio CopyFLACFLAC.EXE
Additional command line options : -8 -V -T "ARTIST=%artist%" -T "TITLE=%title%" -T "ALBUM=%albumtitle%" -T "DATE=%year%" -T "TRACKNUMBER=%tracknr%" -T "GENRE=%genre%" -T "PERFORMER=%albuminterpret%" -T "COMPOSER=%composer%" %haslyrics%--tag-from-file=LYRICS="%lyricsfile%"%haslyrics% -T "ALBUMARTIST=%albumartist%" -T "DISCNUMBER=%cdnumber%" -T "TOTALDISCS=%totalcds%" -T "TOTALTRACKS=%numtracks%" -T "COMMENT=%comment%" %source% -o %dest%


TOC of the extracted CD

Track | Start | Length | Start sector | End sector
---------------------------------------------------------
1 | 0:00.00 | 4:16.57 | 0 | 19256
2 | 4:16.57 | 3:22.73 | 19257 | 34479
3 | 7:39.55 | 4:08.17 | 34480 | 53096
4 | 11:47.72 | 4:27.39 | 53097 | 73160
5 | 16:15.36 | 3:16.24 | 73161 | 87884
6 | 19:31.60 | 4:12.30 | 87885 | 106814
7 | 23:44.15 |
5a72d1892b2fb9cc41466999a9c40f2be11e61b5(2013) Leslie West / Still Climbing (Rock, Hard Rock, Blues Rock) [FLAC (image+.cue), Lossless] (2013) Leslie West / Still Climbing (Rock, Hard Rock, Blues Rock) [FLAC (image+.cue), Lossless] " />

Аплоадер: Админ, дата: 15-11-2013, 19:46, торрент скачан: 359 раз

Понравилась раздача? Посмотрите эти:
  • (2013) Yes / Close To The Edge (1972, remixed, CD+Blu-ray) (Progressive Roc ...
  • (2013) The Holmes Brothers / Brotherhood (Modern Electric Blues, Soul, Gosp ...
  • (2013) Buddy Guy / Rhythm & Blues (2CD) (Blues) [FLAC (image+.cue), Lossles ...
  • (2013) Innes Sibun / Lost In The Wilderness (Blues Rock, Rock) [FLAC (image ...
  • (2013) The Hamburg Blues Band / Friends For A LIVEtime (Blues Rock, Rock) [ ...
  • (2013) Paul McCartney / New (Deluxe Edition) (Rock) [FLAC (image,+.cue), lo ...
  • (2013) Elton John / The Diving Board (Rock, Pop Rock) [FLAC (image+.cue), L ...
  • (2013) Govt Mule / Shout! (2CD) (Blues Rock) [FLAC (image+.cue), Lossless]
  • (2010, 3CD) Ten Years After / Think About the Times. The Chrysalis Years 19 ...
  • (2013) Fall Out Boy / Save Rock and Roll (Pop-Punk) [ALAC (tracks), lossles ...
  • (2013) Black Veil Brides / Wretched And Divine: The Story Of The Wild Ones ...
  • (2011) Linkin Park / LP Underground 11 (Alternative Rock) [FLAC (Image+cue) ...
  • (2007, 5 CDs Box set) VA / 100 Hits - Rock (Hard Rock, Classic Rock) [FLAC ...
  • (2012) Mark Lanegan Band / Blues Funeral (Alternative Rock/Blues Rock) [FLA ...
  • (2012) Marconi Union / Different Colours (Post Rock, Downtempo, Ambient) [F ...
  • (1996) The Rasmus / Peep (Finnish Version) (Alternative Rock) [FLAC (tracks ...
  • (2012) Buckethead / Electric Sea (Experimental/Acoustic/Ambient/Rock) [FLAC ...
  • (2012) Les Friction / Les Friction (Alt. Rock/Neo-Classical/Orchestral) [FL ...
  • (2012) Our Lady Peace / Curve (Alternative/Rock) [FLAC (tracks+.cue), lossl ...
  • (2012) Nine Lashes / World We View (Alt.Rock/Alt.Metal/Christian) [FLAC (tr ...
  • Информация
    Посетители, находящиеся в группе Гости, не могут оставлять комментарии к данной публикации.