вход на сайт

Имя пользователя :
Пароль :

Восстановление пароля Регистрация
(2013) The Rolling Stones / Sweet Summer Sun. Hyde Park Line (DVD+2CD) (Rock) [FLAC (image+.cue), lossless]
Рейтинг:
(голосов: 1)



[img]{THEME}/images/logopost.png[/img]



Исполнитель: The Rolling Stones
Страна: England
Альбом: Sweet Summer Sun. Hyde Park Line (DVD+2CD)
Тип альбома: Live
Год выпуска: 2013
Жанр: Rock
Страна (Издатель, Каталожный номер): Germany (Eagle Vision, EAGDV027)
Аудиокодек: FLAC (*.flac)
Тип рипа: image+.cue
Битрейт: lossless
Продолжительность: 01:51:41
Наличие сканов в содержимом раздачи: Да (JPG, 600dpi, 58Mb)

Дополнительная информация:▼О релизе:
Запись концерта была сделана в Гайд-парке Лондона 6 и 13 июля 2013 года, во время турне b]50 and Counting Tour[/b], посвященного 50-ти летию группы.Юбилейное турне началось в октябре 2012 года и закончится в апреле 2014 годав Новой Зеландии.
В хитпарадах альбом дебютировал с 16-го места в Великобритании и 19-го места в США.


Wikipedia|Official page

CD #1 (FLAC (image+.cue), lossless) ▼
Продолжительность: 00:51:36

Tреклист:
01. Start Me Up - 4:18
02. It’s Only Rock ‘n’ Roll - 4:47
03. Tumbling Dice - 4:05
04. Emotional Rescue - 5:54
05. Street Fighting Man - 5:23
06. Ruby Tuesday - 3:22
07. Doom And Gloom - 4:17
08. Paint It Black - 5:01
09. Honky Tonk Women - 6:59
10. You Got The Silver - 3:18
11. Before They Make Me Run - 4:13

Лог создания рипа (EAC log) ▼Text Exact Audio Copy V1.0 beta 3 from 29. August 2011

EAC extraction logfile from 3. December 2013, 21:40

The Rolling Stones / Sweet Summer Sun. Hyde Park Line CD1

Used drive : ATAPI iHAS124 B Adapter: 2 ID: 0

Read mode : Secure
Utilize accurate stream : Yes
Defeat audio cache : Yes
Make use of C2 pointers : No

Read offset correction : 6
Overread into Lead-In and Lead-Out : No
Fill up missing offset samples with silence : Yes
Delete leading and trailing silent blocks : No
Null samples used in CRC calculations : Yes
Used interface : Native Win32 interface for Win NT & 2000

Used output format : User Defined Encoder
Selected bitrate : 1024 kBit/s
Quality : High
Add ID3 tag : No
Command line compressor : C:Program Files (x86)Exact Audio CopyFLACFLAC.EXE
Additional command line options : -8 -V -T "ARTIST=%artist%" -T "TITLE=%title%" -T "ALBUM=%albumtitle%" -T "DATE=%year%" -T "TRACKNUMBER=%tracknr%" -T "GENRE=%genre%" -T "PERFORMER=%albuminterpret%" -T "COMPOSER=%composer%" %haslyrics%--tag-from-file=LYRICS="%lyricsfile%"%haslyrics% -T "ALBUMARTIST=%albumartist%" -T "DISCNUMBER=%cdnumber%" -T "TOTALDISCS=%totalcds%" -T "TOTALTRACKS=%numtracks%" -T "COMMENT=%comment%" %source% -o %dest%


TOC of the extracted CD

Track | Start | Length | Start sector | End sector
---------------------------------------------------------
1 | 0:00.00 | 4:18.14 | 0 | 19363
2 | 4:18.14 | 4:46.52 | 19364 | 40865
3 | 9:04.66 | 4:05.05 | 40866 | 59245
&nb
5ac50d2f58c613f04a7729f856775a1b90a9f029(2013) The Rolling Stones / Sweet Summer Sun. Hyde Park Line (DVD+2CD) (Rock) [FLAC (image+.cue), lossless] (2013) The Rolling Stones / Sweet Summer Sun. Hyde Park Line (DVD+2CD) (Rock) [FLAC (image+.cue), lossless] " />

Аплоадер: Админ, дата: 8-12-2013, 15:48, торрент скачан: 359 раз

Понравилась раздача? Посмотрите эти:
  • (2013) Yes / Close To The Edge (1972, remixed, CD+Blu-ray) (Progressive Roc ...
  • (2013) The Holmes Brothers / Brotherhood (Modern Electric Blues, Soul, Gosp ...
  • (2013) Buddy Guy / Rhythm & Blues (2CD) (Blues) [FLAC (image+.cue), Lossles ...
  • (2013) Innes Sibun / Lost In The Wilderness (Blues Rock, Rock) [FLAC (image ...
  • (2013) The Hamburg Blues Band / Friends For A LIVEtime (Blues Rock, Rock) [ ...
  • (2013) Leslie West / Still Climbing (Rock, Hard Rock, Blues Rock) [FLAC (im ...
  • (2013) Paul McCartney / New (Deluxe Edition) (Rock) [FLAC (image,+.cue), lo ...
  • (2013) Elton John / The Diving Board (Rock, Pop Rock) [FLAC (image+.cue), L ...
  • (2013) Govt Mule / Shout! (2CD) (Blues Rock) [FLAC (image+.cue), Lossless]
  • (2013) Fall Out Boy / Save Rock and Roll (Pop-Punk) [ALAC (tracks), lossles ...
  • (2011) Linkin Park / LP Underground 11 (Alternative Rock) [FLAC (Image+cue) ...
  • (2012) Marconi Union / Different Colours (Post Rock, Downtempo, Ambient) [F ...
  • (2008, Сборник) VA / Relax Piano - Yesterday - Trai Tim Mua Thu - Vol.7 (Ne ...
  • (2012) Tomandandy / Resident Evil: Retribution (Score, Soundtrack)[FLAC (tr ...
  • (1996) The Rasmus / Peep (Finnish Version) (Alternative Rock) [FLAC (tracks ...
  • (2012) Buckethead / Electric Sea (Experimental/Acoustic/Ambient/Rock) [FLAC ...
  • (2012) Les Friction / Les Friction (Alt. Rock/Neo-Classical/Orchestral) [FL ...
  • (2011) SeeS / The enD (Progressive/Math Metal) [FLAC (tracks+.cue), lossles ...
  • (2012) Our Lady Peace / Curve (Alternative/Rock) [FLAC (tracks+.cue), lossl ...
  • (2012) Nine Lashes / World We View (Alt.Rock/Alt.Metal/Christian) [FLAC (tr ...
  • Информация
    Посетители, находящиеся в группе Гости, не могут оставлять комментарии к данной публикации.