вход на сайт

Имя пользователя :
Пароль :

Восстановление пароля Регистрация
(2002) a-ha / Lifelines (Alternative Rock, Synth-pop ) [FLAC (image + .cue), lossless]
Рейтинг:
(голосов: 1)



[img]{THEME}/images/logopost.png[/img]



Исполнитель: a-ha
Альбом:Lifelines
Тип альбома: Студийный
Год выпуска: 2002
Жанр: Alternative Rock, Synth-pop
Страна (Издатель, Каталожный номер): Wea Records Germany
Аудиокодек: FLAC (*.flac)
Тип рипа: image+.cue
Битрейт: lossless
Продолжительность: 01:01:34
Ссылка на источник: http://rutracker.org/forum/viewtopic.php?t=2223595
Tреклист:

01. lifelines- 4:15
02. you wanted more- 3:41
03. forever not yours- 4:06
04. theres a reason for it- 4:22
05. time & again- 5:04
06. did anyone approach you?- 4:11
07. afternoon high- 4:31
08. oranges on appletrees- 4:16
09. a little bit- 4:11
10. less than pure- 4:13
11. turn the lights down- 4:15
12. cannot hide- 3:19
13. white canvas- 3:27
14. dragonfly- 3:19
15. solace- 4:21

Лог создания рипа ▼Textexact audio copy v0.99 prebeta 3 from 28. july 2007

отчёт eac об извлечении, выполненном 16. февраля 2010, 19:55

a-ha / lifelines

дисковод: pioneer dvd-rw dvr-112d adapter: 1 id: 0

режим чтения : достоверность
использование точного потока : да
отключение кэша аудио : да
использование указателей c2 : нет

коррекция смещения при чтении : 48
способность читать области lead-in и lead-out : нет
заполнение пропущенных сэмплов тишиной : да
удаление блоков с тишиной в начале и конце : нет
при вычислениях crc использовались нулевые сэмплы : да
интерфейс : встроенный win32-интерфейс для win nt/2000

выходной формат : внутренние wav-операции
формат сэмплов : 44.100 гц; 16 бит; стерео


toc извлечённого cd

трек | старт | длительность | начальный сектор | конечный сектор
---------------------------------------------------------------------
1 | 0:00.00 | 4:17.55 | 0 | 19329
2 | 4:17.55 | 3:40.67 | 19330 | 35896
3 | 7:58.47 | 4:06.20 | 35897 | 54366
4 | 12:04.67 | 4:21.55 | 54367 | 73996
5 | 16:26.47 | 5:03.73 | 73997 | 96794
6 | 21:30.45 | 4:10.62 | 96795 | 115606
7 | 25:41.32 | 4:30.68 | 115607 | 135924
8 | 30:12.25 | 4:16.30 | 135925 | &n
f36224e03b273156350af7aace5d350b8c081e59(2002) a-ha / Lifelines (Alternative Rock, Synth-pop ) [FLAC (image + .cue), lossless] (2002) a-ha / Lifelines (Alternative Rock, Synth-pop ) [FLAC (image + .cue), lossless] " />

Аплоадер: Админ, дата: 30-12-2013, 16:37, торрент скачан: 359 раз

Понравилась раздача? Посмотрите эти:
  • (2000) Lenny Kravitz / Greatest Hits (Rock, Funk) [FLAC (image+.cue), lossl ...
  • (1993) Coverdale & Page / Coverdale & Page (EMI Holland)(Hard Rock) [FLAC ( ...
  • (2000) a-ha / Minor Earth | Major Sky (Alternative Rock, Synth-pop ) [FLAC ...
  • (2009) Воскресение / The Best (Rock ) [APE (image + .cue), lossless]
  • (1995) Corona / The Rhythm Of The Night (Japan) (Eurodance) [FLAC (image+. ...
  • (2013) Krokus / Dirty Dynamite (Hard Rock) [FLAC (image+.cue), lossless]
  • (2012) Григорий Лепс / Полный вперёд (Шансон) [FLAC (image+.cue), Lossless ...
  • (1994) Joy / Grand Collection (EuroDisco) [FLAC (image+.cue) lossless]
  • (2006) Батырхан Шукенов/ Отан Ана (Pop) [FLAC (image+.cue) lossless]
  • (2006) Tokio / puls 200 (Alternative Rock / Pop Rock) [FLAC (image+.cue) lo ...
  • (2011) Within Temptation / The Unforgiving (Symphonic Gothic Metal) [FLAC ( ...
  • (2004) Genesis / Platinum Collection (Art Rock) [FLAC (image+.cue), lossles ...
  • (2011) Blues Cousins / KGB Blues (Blues Rock) [FLAC (image+.cue), lossless] ...
  • (2011) АукцЫон / Юла (Rock) [APE (image+.cue), lossless]
  • (Дискография, 1977-1980) Fandango (R&B, Melodic Hard Rock, Electric Pop Roc ...
  • (2012) The Rasmus / The Rasmus (Alternative Rock/Melodic Rock) [FLAC (track ...
  • (2012) The Blues Overdrive / The Blues Overdrive (Blues-Rock) [FLAC (image+ ...
  • (2012) Serebro / Mama Lover (Монолит) (Pop) [FLAC (image+.cue), lossless]
  • ( 2001) Воскресение / Звездная коллекция (Rock) [FLAC (image+.cue) lossless ...
  • (1995) Yaki-Da / Pride (Pop, Eurodance) [FLAC (image+.сue), lossless]
  • (2011) Paradise Lost / Draconian Times MMXI (Limited Edition) (Gothic Rock, ...
  • (2000) Парк Горького (Gorky Park) / The Best (Glam Metal/Hard Rock) [FLAC ...
  • (2004) Ex-Сектор Газа / Огненный рай (Punk-Rock) [FLAC (image+.cue), lossle ...
  • (2008) Студия 80 / Придуманный Мир (Pop) [FLAC (image+.cue), lossless]
  • (2012) Иван Кучин / Небесные цветы (Chanson) [FLAC (image+.cue), lossless]
  • Информация
    Посетители, находящиеся в группе Гости, не могут оставлять комментарии к данной публикации.