вход на сайт

Имя пользователя :
Пароль :

Восстановление пароля Регистрация
(2000) a-ha / Minor Earth | Major Sky (Alternative Rock, Synth-pop ) [FLAC (image + .cue), lossless]
Рейтинг:
(голосов: 1)



[img]{THEME}/images/logopost.png[/img]



Исполнитель: a-ha
Альбом: Minor Earth | Major Sky
Тип альбома: Студийный
Год выпуска: 2000
Жанр: Alternative Rock, Synth-pop
Страна (Издатель, Каталожный номер): Warner Music Germany
Аудиокодек: FLAC (*.flac)
Тип рипа: image+.cue
Битрейт: lossless
Продолжительность: 00:58:37
Ссылка на источник: вероятность определения в % - 0

Tреклист:

01. minor earth major sky- 5:25
02. little black heart- 4:36
03. velvet- 4:19
04. summer moved on- 4:37
05. the sun never shone that day- 4:39
06. to let you win- 4:23
07. the company man- 3:14
08. thought that it was you- 3:50
09. i wish i cared- 4:21
10. barely hanging on- 3:56
11. youll never get over me- 5:39
12. i wont forget her- 4:44
13. mary ellen makes the moment count- 4:54

Лог создания рипа ▼Textexact audio copy v0.99 prebeta 4 from 23. january 2008

отчёт eac об извлечении, выполненном 22. июня 2009, 21:30

a-ha / minor earth major sky

дисковод: asus drw-1608p adapter: 0 id: 0

режим чтения : достоверность
использование точного потока : да
отключение кэша аудио : да
использование указателей c2 : нет

коррекция смещения при чтении : 48
способность читать области lead-in и lead-out : да
заполнение пропущенных сэмплов тишиной : да
удаление блоков с тишиной в начале и конце : нет
при вычислениях crc использовались нулевые сэмплы : да
интерфейс : установленный внешний aspi-интерфейс

выходной формат : пользовательский кодировщик
выбранный битрейт : 768 kbit/s
качество : высокий
добавление id3-тэга : нет
утилита сжатия : c:program filesexact audio copyflacflac.exe
дополнительные параметры : -6 -v -t "artist=%a" -t "title=%t" -t "album=%g" -t "date=%y" -t "tracknumber=%n" -t "genre=%m" -t "comment=%e" %s -o %d


toc извлечённого cd

трек | старт | длительность | начальный сектор | конечный сектор
---------------------------------------------------------------------
1 | 0:00.00 | 5:24.40 | 0 | 24339
2 | 5:24.40 | 4:36.07 | 24340 | 45046
3 | 10:00.47 | 4:19.23 | 45047 | 64494
4 | 14:19.70 | 4:37.00 | 64495 | 85269
5 | 18:56.70 | 4:38.55 | 85270 | 106174
6 | 23:35.50 | 4:23.35 |  
8d858e4ad371c4d93a6c4a98e46c3b4bcc6b34d2(2000) a-ha / Minor Earth | Major Sky (Alternative Rock, Synth-pop ) [FLAC (image + .cue), lossless] (2000) a-ha / Minor Earth | Major Sky (Alternative Rock, Synth-pop ) [FLAC (image + .cue), lossless] " />

Аплоадер: Админ, дата: 30-12-2013, 16:26, торрент скачан: 359 раз

Понравилась раздача? Посмотрите эти:
  • (1993) Coverdale & Page / Coverdale & Page (EMI Holland)(Hard Rock) [FLAC ( ...
  • (2003) Eagles / The Very Best Of Eagles (Rock) ( 2CD Warner USA) [FLAC (ima ...
  • (2012) Sting / Fifteen Healing Bites (Pop Rock)(Chinese Dragon) [FLAC (trac ...
  • (2013) Linkin Park / Underground XIII (Alternative Rock) [FLAC (tracks+.cue ...
  • (2013) Loc-Dog & Tony VA / Все знают всё (Rap, Hip-Hop) [FLAC (Tracks+.Cue ...
  • (2013) Devon Allman / Turquoise (Blues-Rock) [FLAC (image+.cue), lossless]
  • (2013) Pinnick Gales Pridgen / Pinnick Gales Pridgen (Hard Rock, Heavy Blue ...
  • (2012) Рем Дигга / Черника (Rap) [FLAC (tracks+.cue), lossless]
  • (2010) Schiller / Breathless (Electronic) [FLAC (image+.cue), lossless]
  • (2010) БИ-2 / О чём говорят мужчины (Pop-Rock) [FLAC (image + .cue), lossle ...
  • (2011) ГРОТ / О Пути По Встречной (Rap) [FLAC (tracks+.cue), lossless]
  • (1997) Jazz Cafe / Simple Pleasures (Jazz, instrumental) [FLAC (image+.сue ...
  • (Дискография, 2006-2011) Светлана Копылова (Православная песня) [FLAC (imag ...
  • (2012) The Rasmus / The Rasmus (Alternative Rock/Melodic Rock) [FLAC (track ...
  • (1993) Mireille Mathieu / Chante Piaf (Pop) [FLAC (tracks+.cue), lossless]
  • (2012) The Blues Overdrive / The Blues Overdrive (Blues-Rock) [FLAC (image+ ...
  • (2012) Gary Clark Jr. / Blak and Blu (Blues, Rock) [FLAC (image+.cue), loss ...
  • (2012) The Rasmus / The Rasmus (Tour Edition) FLAC (tracks+.cue), lossless
  • (2012) Триада / Мои глаза открыты (Rap) [FLAC (tracks+.cue), lossless]
  • (2012) KREC / Молча проще (Rap) [FLAC (tracks+.cue), lossless]
  • (2011) Ассаи / ОМ (Rap) [FLAC (tracks+.cue), lossless]
  • (2012) Strange Contact / Retro (Synthpop) [FLAC (image+.сue), lossless]
  • (2012) Ария / Live In Studio (Heavy Metal) [FLAC (image+.сue), lossless]
  • (2008) Nirvana / The Best Of (Grunge, Alternative) [FLAC (image+.сue), loss ...
  • (2012) Walter Trout / Blues For The Modern Daze (Blues, Blues Rock) [FLAC ( ...
  • Информация
    Посетители, находящиеся в группе Гости, не могут оставлять комментарии к данной публикации.