вход на сайт

Имя пользователя :
Пароль :

Восстановление пароля Регистрация
(1993) Coverdale & Page / Coverdale & Page (EMI Holland)(Hard Rock) [FLAC (image + .cue), lossless]
Рейтинг:
(голосов: 1)



[img]{THEME}/images/logopost.png[/img]



Исполнитель: Coverdale & Page
Альбом: Coverdale & Page
Тип альбома: Студийный
Год выпуска: 1993
Жанр: Hard Rock
Страна (Издатель, Каталожный номер): EMI Holland
Аудиокодек: FLAC (*.flac)
Тип рипа: image+.cue
Битрейт: lossless
Продолжительность: 01:01:16

Tреклист:

01. shake my tree- 4:54
02. waiting on you- 5:16
03. take me for a little while- 6:16
04. pride and joy- 3:32
05. over now- 5:24
06. feeling hot- 4:12
07. easy does it- 5:53
08. take a look at yourself- 5:02
09. dont leave me this way- 7:53
10. absolution blues- 5:59
11. whisper a prayer for the dying- 6:55

Лог создания рипа ▼Textexact audio copy v0.99 prebeta 5 from 4. may 2009

отчёт eac об извлечении, выполненном 5. марта 2011, 12:19

coverdale - page (p) 1993 / coverdale . page

дисковод: hl-dt-stdvdram gh20ns10 adapter: 1 id: 0

режим чтения : достоверность
использование точного потока : да
отключение кэша аудио : да
использование указателей c2 : нет

коррекция смещения при чтении : 667
способность читать области lead-in и lead-out : нет
заполнение пропущенных сэмплов тишиной : да
удаление блоков с тишиной в начале и конце : нет
при вычислениях crc использовались нулевые сэмплы : да
интерфейс : установленный внешний aspi-интерфейс

выходной формат : пользовательский кодировщик
выбранный битрейт : 1024 kbit/s
качество : высокий
добавление id3-тэга : нет
утилита сжатия : c:program filesexact audio copyflacflac.exe
дополнительные параметры : -6 -v -t "artist=%a" -t "title=%t" -t "album=%g" -t "date=%y" -t "tracknumber=%n" -t "genre=%m" -t "comment=%e" %s -o %d


toc извлечённого cd

трек | старт | длительность | начальный сектор | конечный сектор
---------------------------------------------------------------------
1 | 0:00.32 | 4:54.10 | 32 | 22091
2 | 4:54.42 | 5:16.10 | 22092 | 45801
3 | 10:10.52 | 6:15.73 | 45802 | 73999
4 | 16:26.50 | 3:31.57 | 74000 | 89881
5 | 19:58.32 | 5:23.60 | 89882 | 114166
6 | 25:22.17 | 4:11.38 | 114167 | 133029
7 | 29:33.55 | 5:52.45 | &
94d8657448b250292081d3f7bcf13208387a6e34(1993) Coverdale & Page / Coverdale & Page (EMI Holland)(Hard Rock) [FLAC (image + .cue), lossless] (1993) Coverdale & Page / Coverdale & Page (EMI Holland)(Hard Rock) [FLAC (image + .cue), lossless] " />

Аплоадер: Админ, дата: 30-12-2013, 06:30, торрент скачан: 359 раз

Понравилась раздача? Посмотрите эти:
  • (2000) a-ha / Minor Earth | Major Sky (Alternative Rock, Synth-pop ) [FLAC ...
  • (2003) Eagles / The Very Best Of Eagles (Rock) ( 2CD Warner USA) [FLAC (ima ...
  • (2013) Loc-Dog & Tony VA / Все знают всё (Rap, Hip-Hop) [FLAC (Tracks+.Cue ...
  • (2013) Devon Allman / Turquoise (Blues-Rock) [FLAC (image+.cue), lossless]
  • (2012) Mike Snowden / Cigar Box Guitar Evil (Blues-Rock) [FLAC (image+.cue) ...
  • (2013) Pinnick Gales Pridgen / Pinnick Gales Pridgen (Hard Rock, Heavy Blue ...
  • (2013) Krokus / Dirty Dynamite (Hard Rock) [FLAC (image+.cue), lossless]
  • (2012) Рем Дигга / Черника (Rap) [FLAC (tracks+.cue), lossless]
  • (2010) Schiller / Breathless (Electronic) [FLAC (image+.cue), lossless]
  • (2010) БИ-2 / О чём говорят мужчины (Pop-Rock) [FLAC (image + .cue), lossle ...
  • (2011) VA / Bar Jazz (Swing, Vocal Jazz, Trad Jazz) [FLAC (image+.cue), los ...
  • (1997) Jazz Cafe / Simple Pleasures (Jazz, instrumental) [FLAC (image+.сue ...
  • (Дискография, 2006-2011) Светлана Копылова (Православная песня) [FLAC (imag ...
  • (2012) The Rasmus / The Rasmus (Alternative Rock/Melodic Rock) [FLAC (track ...
  • (1993) Mireille Mathieu / Chante Piaf (Pop) [FLAC (tracks+.cue), lossless]
  • (2012) The Blues Overdrive / The Blues Overdrive (Blues-Rock) [FLAC (image+ ...
  • (2012) Gary Clark Jr. / Blak and Blu (Blues, Rock) [FLAC (image+.cue), loss ...
  • (2012) The Rasmus / The Rasmus (Tour Edition) FLAC (tracks+.cue), lossless
  • (1993) Coverdale & Page / Coverdale & Page (2011 Sony Music Japan, Blu-Spec ...
  • (2012) KREC / Молча проще (Rap) [FLAC (tracks+.cue), lossless]
  • (2011) Ассаи / ОМ (Rap) [FLAC (tracks+.cue), lossless]
  • (2012) Strange Contact / Retro (Synthpop) [FLAC (image+.сue), lossless]
  • (2012) Ария / Live In Studio (Heavy Metal) [FLAC (image+.сue), lossless]
  • (2008) Nirvana / The Best Of (Grunge, Alternative) [FLAC (image+.сue), loss ...
  • (2012) Walter Trout / Blues For The Modern Daze (Blues, Blues Rock) [FLAC ( ...
  • Информация
    Посетители, находящиеся в группе Гости, не могут оставлять комментарии к данной публикации.