вход на сайт

Имя пользователя :
Пароль :

Восстановление пароля Регистрация
(2000) Lenny Kravitz / Greatest Hits (Rock, Funk) [FLAC (image+.cue), lossless]
Рейтинг:
(голосов: 1)



[img]{THEME}/images/logopost.png[/img]



Исполнитель: Lenny Kravitz
Альбом: Greatest Hits
Тип альбома: Compilation
Год выпуска: 2000
Жанр: Rock
Аудиокодек: FLAC (*.flac)
Тип рипа: image+.cue
Битрейт: lossless
Продолжительность: 01:02:21

Tреклист:

01. are you gonna go my way- 3:32
02. fly away- 3:42
03. rock and roll is dead- 3:24
04. again- 3:49
05. it aint over til its over- 4:03
06. cant get you off my mind- 4:34
07. mr. cab driver- 3:50
08. american woman- 4:22
09. stand by my woman- 4:20
10. always on the run- 3:52
11. heaven help- 3:10
12. i belong to you- 4:17
13. believe- 4:55
14. let love rule- 5:43
15. black velveteen- 4:49

Лог создания рипа ▼Textexact audio copy v1.0 beta 3 from 29. august 2011

отчёт eac об извлечении, выполненном 25. ноября 2012, 13:24

lenny kravitz / greatest hits

дисковод: tsstcorpcddvdw sh-222al adapter: 3 id: 0

режим чтения : достоверность
использование точного потока : да
отключение кэша аудио : да
использование указателей c2 : нет

коррекция смещения при чтении : 6
способность читать области lead-in и lead-out : нет
заполнение пропущенных сэмплов тишиной : да
удаление блоков с тишиной в начале и конце : нет
при вычислениях crc использовались нулевые сэмплы : да
интерфейс : встроенный win32-интерфейс для win nt/2000

выходной формат : внутренние wav-операции
формат сэмплов : 44.100 гц; 16 бит; стерео


toc извлечённого cd

трек | старт | длительность | начальный сектор | конечный сектор
---------------------------------------------------------------------
1 | 0:00.00 | 3:31.40 | 0 | 15864
2 | 3:31.40 | 3:41.67 | 15865 | 32506
3 | 7:13.32 | 3:24.10 | 32507 | 47816
4 | 10:37.42 | 3:48.70 | 47817 | 64986
5 | 14:26.37 | 4:02.48 | 64987 | 83184
6 | 18:29.10 | 4:33.57 | 83185 | 103716
7 | 23:02.67 | 3:50.20 | 103717 | 120986
8 | 26:53.12 | 4:21.53 | 120987 | 140614
9 | 31:14.65 | 4:19.47 | 140615
949ee0629982721309f5b765cb7ab2adb4e83e99(2000) Lenny Kravitz / Greatest Hits (Rock, Funk) [FLAC (image+.cue), lossless] (2000) Lenny Kravitz / Greatest Hits (Rock, Funk) [FLAC (image+.cue), lossless] " />

Аплоадер: Админ, дата: 29-12-2013, 19:22, торрент скачан: 359 раз

Понравилась раздача? Посмотрите эти:
  • (2002) a-ha / Lifelines (Alternative Rock, Synth-pop ) [FLAC (image + .cue ...
  • (1995) Corona / The Rhythm Of The Night (Japan) (Eurodance) [FLAC (image+. ...
  • (2013) Krokus / Dirty Dynamite (Hard Rock) [FLAC (image+.cue), lossless]
  • (2010) Green Day / Greatest Hits (2CD) (Alternative, Punk Rock) [APE (image ...
  • (2008) Deep Purple / Greatest Hits [Star Mark Compilations] (2CD) (Hard Roc ...
  • (2012) Григорий Лепс / Полный вперёд (Шансон) [FLAC (image+.cue), Lossless ...
  • (2008) VANESSA MAE / Star Mark Greatest Hits [2CD] (Neoclassical / Violin / ...
  • (2006) Батырхан Шукенов/ Отан Ана (Pop) [FLAC (image+.cue) lossless]
  • (2008) John Lennon - Greatest Hits (2CD) (Classic Rock) [FLAC (image+.cue) ...
  • (2004) Genesis / Platinum Collection (Art Rock) [FLAC (image+.cue), lossles ...
  • (2011) Blues Cousins / KGB Blues (Blues Rock) [FLAC (image+.cue), lossless] ...
  • (2011) АукцЫон / Юла (Rock) [APE (image+.cue), lossless]
  • (2011) Queen / The Platinum Collection Greatest Hits [I, II, III] Japanese ...
  • (2007) Pink Floyd / Greatest Hits [Star Mark] (2 CD) (Progressive Rock, Ps ...
  • ( 2001) Воскресение / Звездная коллекция (Rock) [FLAC (image+.cue) lossless ...
  • (2009, Cборник) Madonna / Greatest Hits [CD1 + CD2] (Pop) [APE (image+.cue) ...
  • (1995) Yaki-Da / Pride (Pop, Eurodance) [FLAC (image+.сue), lossless]
  • (2000) Парк Горького (Gorky Park) / The Best (Glam Metal/Hard Rock) [FLAC ...
  • (2004) Ex-Сектор Газа / Огненный рай (Punk-Rock) [FLAC (image+.cue), lossle ...
  • (2008) Студия 80 / Придуманный Мир (Pop) [FLAC (image+.cue), lossless]
  • Информация
    Посетители, находящиеся в группе Гости, не могут оставлять комментарии к данной публикации.