вход на сайт

Имя пользователя :
Пароль :

Восстановление пароля Регистрация
(1993) Mick Jagger / Wandring Spirit (Rock) [FLAC(image+.cue), lossless]
Рейтинг:
(голосов: 1)



[img]{THEME}/images/logopost.png[/img]



Исполнитель: Mick Jagger
Страна: uk
Альбом: Wandering Spirit (US First Press)
Тип альбома: Студийный
Год выпуска: 1993
Жанр: Rock
Страна (Издатель, Каталожный номер): US / Atlantic / 7 82436-2
Аудиокодек: FLAC (*.flac)
Тип рипа: image+.cue
Битрейт: lossless
Продолжительность: 00:54:06

Об исполнителе (об издании): Это третий сольный альбом Мика Джеггера. Нет смысла писать, кто это, ибо любой нормальный человек на планете Земля должен его знать.

Tреклист:

1. Wired All Night 3:49
2. Sweet Thing 4:20
3. Out Of Focus 4:36
4. Dont Tear Me Up 4:13
5. Put Me In The Trash 3:35
6. Use Me 4:29
7. Evening Gown 3:32
8. Mother Of A Man 4:18
9. Think Listen 2:59
10. Wandering Spirit 4:19
11. Hang On To Me Tonight 4:37
12. Ive Been Lonely For So Long 3:29
13. Angel In My Heart 3:28
14. Handsome Molly 2:06

Лог создания рипа ▼Textexact audio copy v0.99 prebeta 5 from 4. may 2009

eac extraction logfile from 27. october 2009, 18:50

mick jagger / wandering spirit

used drive : atapi dvd a dh20a4p adapter: 1 id: 0

read mode : secure
utilize accurate stream : yes
defeat audio cache : yes
make use of c2 pointers : no

read offset correction : 6
overread into lead-in and lead-out : no
fill up missing offset samples with silence : yes
delete leading and trailing silent blocks : no
null samples used in crc calculations : yes
used interface : installed external aspi interface

used output format : internal wav routines
sample format : 44.100 hz; 16 bit; stereo


toc of the extracted cd

track | start | length | start sector | end sector
---------------------------------------------------------
1 | 0:00.00 | 4:06.17 | 0 | 18466
2 | 4:06.17 | 4:19.40 | 18467 | 37931
3 | 8:25.57 | 4:35.55 | 37932 | 58611
4 | 13:01.37 | 4:12.63 | 58612 | 77574
5 | 17:14.25 | 3:35.22 | 77575 | 93721
6 | 20:49.47 | 4:28.60 | 93722 | 113881
7 | 25:18.32 | 3:32.23 | 113882 | 129804
8 | 28:50.55 | 4:17.47 | 129805 | 149126
9 | 33:08.27 | 2:59.00 | 149127 | 162551
10 | 36:07.27 | 4:18.70 | 162552 | 181971
11 | 40:26.22 | 4:36.53 | 181972 | 202724
12 | 45:03.00 | 3:29.15 | 202725 | 218414
13 | 48:32.15 | 3:27.70 | 218415 | 234009
14 | 52:00.10 | 2:06.20 | &nb
224909665a93d1dfc2389c74f79fec5bb340ec91(1993) Mick Jagger / Wandring Spirit (Rock) [FLAC(image+.cue), lossless] (1993) Mick Jagger / Wandring Spirit (Rock) [FLAC(image+.cue), lossless] " />

Аплоадер: Админ, дата: 25-12-2013, 00:04, торрент скачан: 359 раз

Понравилась раздача? Посмотрите эти:
  • (1996) George Michael / Older (1st Press Japan) (Electronic, Pop/Rock) [FLA ...
  • (2013) Мумий Тролль / SOS Матросу - 2013, (Rock) [FLAC (image+.cue), lossle ...
  • (1997) Моральный кодекс / Я выбираю тебя (подарочное издание 2007) (Pop-Roc ...
  • (2014) Ozzy Osbourne / Dreamer (Hard Rock, Heavy Metal, Power Ballad) [FLAC ...
  • (2010)Scorpions/Sting In The Tail [FLAC (tracks+cue), lossless]
  • (2010) Сергей Трофимов (Трофим) / Всё не важно (Шансон) [FLAC(image+.cue), ...
  • (2010) Ассаи / Лифт (Rap) [FLAC(image+.cue), lossless]
  • (2007) Константин Никольский / Иллюзии (Rock) [APE (image + .cue), lossless ...
  • (2011) Uriah Heep - Into The Wild (Hard Rock, Progressive Rock)[FLAC (track ...
  • (2010) Zdob si Zdub / Белое вино / Красное вино (folk rock, folk punk, hard ...
  • (2008) Юрий Наумов / Рок как будто Блюз (Blues) [FLAC (Image+.cue), lossles ...
  • (2009) D-Man 55 / 7.62 Б-30 (Rap) [FLAC (image+.cue) lossless]
  • (2011) 3 Doors Down / Time Of My Life [Deluxe Edition] (Alternative Rock/Po ...
  • (1996) DJ Dado / The Album (Electronic, Dream trance) [FLAC (image+.сue), l ...
  • (2004) Игорь Малинин / От Штирлица до Путина (Pop) [FLAC (image+.cue), los ...
  • (1993) Coverdale & Page / Coverdale & Page (2011 Sony Music Japan, Blu-Spec ...
  • (1993) Крис Кельми / Greatest Hits (Pop-Rock) [FLAC (image+.cue), lossless] ...
  • (2011) Yanni / Truth Of Touch (New Age) [FLAC (image+ .cue),lossless]
  • (2011) Стас Михайлов / Только ты (Шансон) [Flac(image+.cue)Lossless]
  • (2009) Чиж & Co / Лучшее. Золотая коллекция (Rock) [FLAC (image+.cue), loss ...
  • Информация
    Посетители, находящиеся в группе Гости, не могут оставлять комментарии к данной публикации.