вход на сайт

Имя пользователя :
Пароль :

Восстановление пароля Регистрация
(1988) Paul McCartney / Снова в СССР (Rock, Rock & Roll) [FLAC(image+.cue), lossless ]
Рейтинг:
(голосов: 1)



[img]{THEME}/images/logopost.png[/img]



Исполнитель: Paul McCartney
Альбом: Снова в СССР
Тип альбома: Студийный
Год выпуска: 1988
Переиздан: 1991 Capitol Records
Жанр: Rock, Rock & Roll
Страна (Издатель, Каталожный номер): USA (Capitol Records CDP 7976152)
Аудиокодек: FLAC (*.flac)
Тип рипа: image+.cue
Битрейт: lossless
Продолжительность: 00:50:54

Об исполнителе (об издании): Снова в СССР записан в студии за два дня с сессионными музыкантами, и в 1988 году выпущен исключительно в СССР, чем был создан ажиотаж на релиз среди почитателей творчества Пола Маккартни на Западе.Альбом содержит песни 50-х годов, любимые Полом в юности. Всего было записано 22 песни, из них в первое русское издание вошло 11, во второе (декабрь 1988) 13 песен. В переиздании содержались 14 песен.
Международное издание содержит ошибку в названии на обложке альбома. Напечатано «СНОВА Б СССР». Переиздание достигло 63 места в британском хит-параде и 109 места в США.

Tреклист:
01. Kansas City 04:02
02. Twenty Flight Rock 03:04
03. Lawdy Miss Clawdy 03:17
04. Im In Love Again 02:59
05. Bring It On Home To Me 03:14
06. Lucille 03:13
07. Dont Get Around Much Anymore 02:50
08. Im Gonna Be A Wheel Someday 04:13
09. Thats All Right Mama 03:48
10. Summertime 04:57
11. Aint That A Shame 03:43
12. Crackin Up 03:55
13. Just Because 03:34
14. Midnight Special 03:58

Лог создания рипа ▼Textexact audio copy v0.99 prebeta 5 from 4. may 2009
отчёт eac об извлечении, выполненном 19. февраля 2011, 23:32
paul mccartney / choba b cccp - the russian album
дисковод: hl-dt-stdvdram gsa-h42l adapter: 1 id: 1
режим чтения : достоверность
использование точного потока : да
отключение кэша аудио : да
использование указателей c2 : нет
коррекция смещения при чтении : 667
способность читать области lead-in и lead-out : нет
заполнение пропущенных сэмплов тишиной : да
удаление блоков с тишиной в начале и конце : нет
при вычислениях crc использовались нулевые сэмплы : да
интерфейс : встроенный win32-интерфейс для win nt/2000
выходной формат : пользовательский кодировщик
выбранный битрейт : 1024 kbit/s
качество : высокий
добавление id3-тэга : нет
утилита сжатия : c:program filesflacflac.exe
дополнительные параметры : -6 -v -t "artist=%a" -t "title=%t" -t "album=%g" -t "date=%y" -t "tracknumber=%n" -t "genre=%m" -t "comment=%e" %s -o %d
toc извлечённого cd
трек | старт | длительность | начальный сектор | конечный сектор
---------------------------------------------------------------------
1 | 0:00.00 | 4:02.60 | 0 | 18209
2 | 4:02.60 | 3:04.28 | 18210 | 32037
3 | 7:07.13 | 3:17.72 | 32038 | 46884
4 | 10:25.10 | 2:59.63 | 46885 | 60372
5 | 13:24.73 | 3:14.60 | 60373
b4141f946d657ebeabc6a369e13a9917fe381b07(1988) Paul McCartney / Снова в СССР (Rock, Rock & Roll) [FLAC(image+.cue), lossless ] (1988) Paul McCartney / Снова в СССР (Rock, Rock & Roll) [FLAC(image+.cue), lossless ] " />

Аплоадер: Админ, дата: 23-12-2013, 01:01, торрент скачан: 359 раз

Понравилась раздача? Посмотрите эти:
  • (1993) Coverdale & Page / Coverdale & Page (EMI Holland)(Hard Rock) [FLAC ( ...
  • (2000) a-ha / Minor Earth | Major Sky (Alternative Rock, Synth-pop ) [FLAC ...
  • (2003) Eagles / The Very Best Of Eagles (Rock) ( 2CD Warner USA) [FLAC (ima ...
  • (2012) Sting / Fifteen Healing Bites (Pop Rock)(Chinese Dragon) [FLAC (trac ...
  • (2013) Linkin Park / Underground XIII (Alternative Rock) [FLAC (tracks+.cue ...
  • (2013) Paul McCartney / New (Deluxe Edition) (Rock) [FLAC (image,+.cue), lo ...
  • (2013) Devon Allman / Turquoise (Blues-Rock) [FLAC (image+.cue), lossless]
  • (2013) Pinnick Gales Pridgen / Pinnick Gales Pridgen (Hard Rock, Heavy Blue ...
  • (2013) Krokus / Dirty Dynamite (Hard Rock) [FLAC (image+.cue), lossless]
  • (2012) Рем Дигга / Черника (Rap) [FLAC (tracks+.cue), lossless]
  • (2010) Schiller / Breathless (Electronic) [FLAC (image+.cue), lossless]
  • (2010) БИ-2 / О чём говорят мужчины (Pop-Rock) [FLAC (image + .cue), lossle ...
  • (1997) Jazz Cafe / Simple Pleasures (Jazz, instrumental) [FLAC (image+.сue ...
  • (Дискография, 2006-2011) Светлана Копылова (Православная песня) [FLAC (imag ...
  • (2012) The Rasmus / The Rasmus (Alternative Rock/Melodic Rock) [FLAC (track ...
  • (2011) Sting / The Best Of 25 Years (2 CD) (Pop Rock, Soft Rock) [FLAC (ima ...
  • (1993) Mireille Mathieu / Chante Piaf (Pop) [FLAC (tracks+.cue), lossless]
  • (2012) The Blues Overdrive / The Blues Overdrive (Blues-Rock) [FLAC (image+ ...
  • (2012) Gary Clark Jr. / Blak and Blu (Blues, Rock) [FLAC (image+.cue), loss ...
  • (2005) Анна Герман / Наши любимые песни (Pop, Retro) [FLAC(image+.cue), los ...
  • (2012) The Rasmus / The Rasmus (Tour Edition) FLAC (tracks+.cue), lossless
  • (2011) Ассаи / ОМ (Rap) [FLAC (tracks+.cue), lossless]
  • (2012) Ария / Live In Studio (Heavy Metal) [FLAC (image+.сue), lossless]
  • (2008) Nirvana / The Best Of (Grunge, Alternative) [FLAC (image+.сue), loss ...
  • (2012) Walter Trout / Blues For The Modern Daze (Blues, Blues Rock) [FLAC ( ...
  • Информация
    Посетители, находящиеся в группе Гости, не могут оставлять комментарии к данной публикации.