вход на сайт

Имя пользователя :
Пароль :

Восстановление пароля Регистрация
(2012) No Doubt / Push And Shove (Deluxe Edition) (2 CD) (Alternative Rock, Pop Rock) [FLAC (tracks+.cue), lossless]
Рейтинг:
(голосов: 1)



[img]{THEME}/images/logopost.png[/img]



Исполнитель: No Doubt
Страна: США
Альбом: Push And Shove (2 CD)
Вариант издания: (Deluxe Edition)
Тип альбома: Студийный
Год выпуска: 2012
Жанр: Alternative Rock, Pop Rock
Страна (Издатель): США (Interscope Records)
Аудиокодек: FLAC (*.flac)
Тип рипа: tracks, image+.cue
Битрейт: lossless
Log-файл: Присутствует.
Наличие сканов в содержимом раздачи: Нет.
Продолжительность: 01:27:50

Описание: No Doubt (в переводе с англ. «Без сомнения») — американская ска-панк-группа, образованная в 1986 году в Анахайме, Калифорния, США. Наибольшую известность приобрела после выхода альбома Tragic Kingdom.
Группа была создана в 1986 году Эриком Стефани (Eric Stefani) и Джоном Спенсом (John Spence), и изначально называлась Apple Core. Эрик выступил клавишником, а Джон — вокалистом. Также, в качестве вокалистки второго плана Стефани пригласил свою сестру Гвен (Gwen Stefani). Несколько месяцев группа искала музыкантов, а затем репетировала. Вскоре коллектив стал играть на вечеринках, исполняя хиты разных групп и некоторое количество своих песен.

Состав:
Гвен Стефани — вокал
Том Дюмонт — гитара, клавишные
Тони Кэнел — бас-гитара
Эдриан Янг — барабаны, перкуссия

Disc 1
Продолжительность: 00:51:57

Треклист:
01. No Doubt - Settle Down (06:00)
02. No Doubt - Looking Hot (04:42)
03. No Doubt - One More Summer (04:39)
04. No Doubt - Push And Shove (05:06)
05. No Doubt - Easy (05:10)
06. No Doubt - Gravity (04:25)
07. No Doubt - Undercover (03:31)
08. No Doubt - Undone (04:37)
09. No Doubt - Sparkle (04:08)
10. No Doubt - Heaven (04:07)
11. No Doubt - Dreaming The Same Dream (05:27)Disc 2
Продолжительность: 00:35:53

Треклист:
01. No Doubt - Stand And Deliver (03:21)
02. No Doubt - Settle Down (Acoustic-Santa Monica Sessions) (04:02)
03. No Doubt - Looking Hot (Acoustic-Santa Monica Sessions) (04:21)
04. No Doubt - One More Summer (Acoustic-Santa Monica Sessions) (04:20)
05. No Doubt - Easy (Acoustic-Santa Monica Sessions) (04:48)
06. No Doubt - Looking Hot (Jonas Quant Remix) (04:48)
07. No Doubt - One More Summer (Jonas Quant Remix) (04:36)
08. No Doubt Feat Busy Signal And Major Lazer - Push And Shove
(Anthony Gorry Remix) (05:34)

CD1
Лог создания рипа (XLD log) ▼TextX Lossless Decoder version 20120609 (141.0)

XLD extraction logfile from 2012-09-21 16:18:53 +1000

No Doubt / Push And Shove

Used drive : OPTIARC DVD RW AD-5680H (revision 3AHB)

Ripper mode : XLD Secure Ripper
Disable audio cache : OK for the drive with a cache less than 1375KiB
Make use of C2 pointers : NO
Read offset correction : 48
Max retry count : 100
Gap status : Analyzed, Appended

TOC of the extracted CD
Track | Start | Length | Start sector | End sector
---------------------------------------------------------
1 | 00:00:00 | 06:00:65 | 0 | 27064
2 | 06:00:65 | 04:42:45 | 27065 | 48259
3 | 10:43:35 | 04:39:27 | 48260 | 69211
4 | 15:22:62 | 05:06:74 | 69212 | 92235
5 | 20:29:61 | 05:10:17 | 92236 | 115502
6 | 25:40:03 | 04:25:07 | 115503 | &nbs
ac4d5fe2aa4b09b1a7eeccdd8a8ad7e9f8030084(2012) No Doubt / Push And Shove (Deluxe Edition) (2 CD) (Alternative Rock, Pop Rock) [FLAC (tracks+.cue), lossless] (2012) No Doubt / Push And Shove (Deluxe Edition) (2 CD) (Alternative Rock, Pop Rock) [FLAC (tracks+.cue), lossless] " />

Аплоадер: Админ, дата: 3-11-2012, 15:07, торрент скачан: 359 раз

Понравилась раздача? Посмотрите эти:
  • (2013) Kanye West | Yeezus (Rap|Experimental Hip-Hop) [FLAC (tracks+.cue), ...
  • (2012) The Lumineers / The Lumineers (Indie-folk, Folk-rock) [FLAC (tracks+ ...
  • (2013) Paramore / Paramore (Japan Edition) (Alternative Rock) [FLAC (tracks ...
  • (2013) Bullet For My Valentine / Temper Temper (Japanese Deluxe Edition) (M ...
  • (2012) Taylor Swift / Red (Target Exclusive Deluxe Edition) + Booklet (Pop ...
  • (Дискография) No Doubt (PunkRock,ScaPunk) [MP3, 320/CBR]
  • (Дискография, 2004-2006) Gwen Stefani (Pop) [mp3, 320kbps/CBR]
  • (2011) 3 Doors Down / Time Of My Life [Deluxe Edition] (Alternative Rock/Po ...
  • (2012) Bruce Springsteen / Wrecking Ball (Folk Rock) [FLAC (tracks+.cue),l ...
  • (2008) Eric Clapton / 461 Ocean Boulevard (Deluxe Edition, 2CD, Japan SHM-C ...
  • (2012) Norah Jones / Little Broken Hearts (Vocal Jazz, Alternative Rock) [F ...
  • (Дискография, 1997-2011) Thousand Foot Krutch (TFK) (Christian Rock, Altern ...
  • (2012) Hans Zimmer / The Dark Knight Rises (Film score) [FLAC (tracks+.cu ...
  • (2012) Linkin Park / LP Underground 12 (Alternative Rock) [FLAC (tracks+.cu ...
  • No Doubt / Dont Speak [1996, Rock, Pop Rock, DVDRip]
  • (2012) Ne-Yo / R.E.D. (Target Exclusive Edition) (R&B, Soul, Pop) [FLAC (tr ...
  • Сомнение / Doubt (Джон Патрик Шэнли, Детектив, Драма, Мистика, 2008) [BDRiP ...
  • (2012) Lana Del Rey / Born To Die (Indie Pop) [FLAC (tracks+.cue), lossless ...
  • (2012) Young Guns / Bones (Alternative Rock) [FLAC (tracks +.cue), lossless ...
  • (2012) Kaura / The Acoustic Sessions (Alternative Rock, Progressive Rock, A ...
  • (2012) Switchfoot / Vice Re-Verses (Remixes) (Alternative, Christian Rock, ...
  • (2011) 7eventh Time Down / Alive In You (Alternative Rock/Modern Rock/Chris ...
  • No Doubt / Settle Down [2012, Rock, HDRip]
  • (2012) No Doubt / Push And Shove (Deluxe Edition) (2 CD) (Pop Rock, Alterna ...
  • No Doubt ft. Busy Signal, Major Lazer / Push & Shove [2012, Rock, HDRip]
  • Информация
    Посетители, находящиеся в группе Гости, не могут оставлять комментарии к данной публикации.