вход на сайт

Имя пользователя :
Пароль :

Восстановление пароля Регистрация
(Дискография, 2008-2011) Bon Iver (Folk-rock, Indie-folk, Indie-rock) [FLAC (tracks+.cue), lossless]
Рейтинг:
(голосов: 1)



[img]{THEME}/images/logopost.png[/img]




Дискография
Исполнитель:Bon Iver
Страна: США
Год выпуска: 2008-2011
Жанр:Folk-rock, Indie-folk, Indie-rock
Аудиокодек: FLAC (*.flac)
Тип рипа: tracks+.cue
Битрейт: lossless
Лог файлы: присутствуют
Наличие сканов в содержимом раздачи: Есть
Продолжительность: 01:03:38

Об исполнителе: Bon Iver — американский инди-фолк-коллектив, образованный в 2007 году. В состав входят Джастин Вернон, Майкл Нойс, Шон Кэри и Мэтью Маккон. Дебютный альбом проекта, названный For Emma, Forever Ago, был выпущен Верноном независимо в июле 2007 года. Большая часть этой пластинки была записана в течение трёх месяцев, проведённых Верноном в заброшенном доме на северо-западе штата Висконсин. Название группы происходит от французского словосочетания «bon hiver», означающего «добрая зима» или «хорошей зимы».


Wikipedia|YouTube|Facebook|Official page

Студийные:
2008 - For Emma, Forever Ago (FLAC (tracks+.cue)) ▼


Продолжительность: 00:37:15

Tреклист:
01. Flume (3:39)
02. Lump Sum (3:21)
03. Skinny Love (3:58)
04. The Wolves (Act I and II) (5:22)
05. Blindsided (5:29)
06. Creature Fear (3:06)
07. Team (1:56)
08. For Emma (3:40)
09. re: Stacks (6:41)

Лог создания рипа ▼Text
Exact Audio Copy V0.99 prebeta 5 from 4. May 2009

EAC extraction logfile from 28. June 2011, 3:35

Bon Iver / For Emma, Forever Ago

Used drive : PIONEER DVD-RW DVR-118L Adapter: 2 ID: 0

Read mode : Secure
Utilize accurate stream : Yes
Defeat audio cache : Yes
Make use of C2 pointers : No

Read offset correction : 6
Overread into Lead-In and Lead-Out : No
Fill up missing offset samples with silence : Yes
Delete leading and trailing silent blocks : No
Null samples used in CRC calculations : Yes
Used interface : Native Win32 interface for Win NT & 2000
Gap handling : Appended to previous track

Used output format : User Defined Encoder
Selected bitrate : 128 kBit/s
Quality : High
Add ID3 tag : No
Command line compressor : C:Program Files (x86)Exact Audio CopyFlacflac.exe
Additional command line options : -8 -V -T "ARTIST=%a" -T "TITLE=%t" -T "ALBUM=%g" -T "DATE=%y" -T "TRACKNUMBER=%n" -T "GENRE=%m" -T "COMMENT=EAC FLAC -8" %s


TOC of the extracted CD

Track | Start | Length | Start sector | End sector
---------------------------------------------------------
1 | 0:00.00 | 3:39.00 | 0 | 16424
2 | 3:39.00 | 3:21.05 | 16425 | 31504
3 | 7:00.05 | 3:58.39 | 31505 | 49393
4 | 10:58.44 | 5:22.03 | 49394 | 73546
5 | 16:20.47 | 5:29.20 | 73547 | 98241
841b5fe1377336bca5ab064ee568192152e1b5cc(Дискография, 2008-2011) Bon Iver (Folk-rock, Indie-folk, Indie-rock) [FLAC (tracks+.cue), lossless] (Дискография, 2008-2011) Bon Iver (Folk-rock, Indie-folk, Indie-rock) [FLAC (tracks+.cue), lossless] " />

Аплоадер: Админ, дата: 13-07-2012, 22:09, торрент скачан: 359 раз

Понравилась раздача? Посмотрите эти:
  • (2012) The Cranberries / Roses (2 CD Deluxe Edition) (Alternative Rock, Ind ...
  • (2013) Bon Jovi / What About Now (Deluxe Edition) (Hard Rock) [FLAC (tracks ...
  • (Дискография, 2006-2012) Angels&Airwaves (AVA) (Alternative) [FLAC(tracks+. ...
  • (2010) Вячеслав Бутусов и Ю-Питер / Цветы и Тернии (Rock) [FLAC (tracks + . ...
  • (2010) Zaz / Zaz (Nu jazz, Chanson, Soul) [FLAC (tracks+.cue), lossless]
  • (Дискография, 1994-2011) Cake (Indie Rock) [FLAC (tracks+.cue), losslesss]
  • (2011) Daughtry / Break the Spell (Deluxe Edition) (Alt. Rock / Modern Rock ...
  • (2011) Foster the People / Torches [Best Buy Exclusive Edition] (Indie / El ...
  • (2007, 5 CDs Box set) VA / 100 Hits - Rock (Hard Rock, Classic Rock) [FLAC ...
  • (2010) Ravenna / Debrief (Alt. Rock / Christian Rock / Indie) [FLAC (tracks ...
  • (2011) B.B. King / Icon (Blues) [FLAC (tracks+.cue), lossless]
  • (2012) Son Of A Bad Man / Heres To The Falling In... (Alt.Rock) [FLAC (trac ...
  • (2012) Amy MacDonald / Life In A Beautiful Light (Deluxe Edition) (Acoustic ...
  • (2012) Marconi Union / Different Colours (Post Rock, Downtempo, Ambient) [F ...
  • (2008, Сборник) VA / Relax Piano - Yesterday - Trai Tim Mua Thu - Vol.7 (Ne ...
  • (1996) The Rasmus / Peep (Finnish Version) (Alternative Rock) [FLAC (tracks ...
  • (2011) Ляпис Трубецкой / Веселые картинки (Rock) [FLAC (tracks+.cue), lossl ...
  • (2011) Scorpions / Comeblack (Hard Rock) [FLAC (tracks+.cue)lossless]
  • (2011) Ленинград / Хна (Rock) [FLAC (tracks+.cue), lossless]
  • (2012) Buckethead / Electric Sea (Experimental/Acoustic/Ambient/Rock) [FLAC ...
  • (2012) Les Friction / Les Friction (Alt. Rock/Neo-Classical/Orchestral) [FL ...
  • (2011) Downhere / On The Altar Of Love (Alternative Rock/Christian Rock) [F ...
  • (2012) Our Lady Peace / Curve (Alternative/Rock) [FLAC (tracks+.cue), lossl ...
  • (2012) Nine Lashes / World We View (Alt.Rock/Alt.Metal/Christian) [FLAC (tr ...
  • (2011) Phinehas / Thegodmachine (Metalcore) [FLAC (tracks+.cue), lossless]
  • Информация
    Посетители, находящиеся в группе Гости, не могут оставлять комментарии к данной публикации.