вход на сайт

Имя пользователя :
Пароль :

Восстановление пароля Регистрация
(2008) Nirvana / The Best Of (Grunge, Alternative) [FLAC (image+.сue), lossless]
Рейтинг:
(голосов: 1)



[img]{THEME}/images/logopost.png[/img]



Исполнитель:Nirvana
Страна: США
Альбом:The Best Of
Тип альбома:Compilation
Год выпуска:2008
Жанр:Grunge, Alternative
Формат: FLAC (image+.сue)
Битрейт: lossless
Log-файл: Присутствует
Продолжительность: 01:17:54



Wikipedia | Last.fm | Myspace | Official page

Tреклист:
01. Smells Like Teen Spirit (5:01)
02. Come As You Are (3:39)
03. You Know You`re Right (3:38)
04. Been A Son (2:24)
05. I Hate Myself And I Want To Die (4:03)
06. Kurt Cobain - Krist Novoselic - Sliver (2:14)
07. Lithium (4:17)
08. In Bloom (4:15)
09. Heart - Shaped Box (4:42)
10. Pennyroyal Tea (3:38)
11. Breed (3:08)
12. Rape Me (2:51)
13. All Apologies (3:54)
14. Sappy (3:27)
15. Dumb (2:34)
16. About A Girl (MTV Unplugged) (3:38)
17. The Man Who Sold The World (MTV Unplugged) (4:21)
18. Krist Novoselic - Polly (MTV Unplugged) (3:16)
19. A Plain (MTV Unplugged) (3:45)
20. Something In The Way (MTV Unplugged) (4:02)
21. Where Did You Sleep Last Night (5:06)


Лог создания рипа ▼Text
Exact Audio Copy V1.0 beta 1 from 15. November 2010

Отчёт EAC об извлечении, выполненном 11. декабря 2011, 14:02

Nirvana / Nirvana The Best Of

Дисковод: ASUS DRW-22B2ST Adapter: 2 ID: 0

Режим чтения : Достоверность
Использование точного потока : Да
Отключение кэша аудио : Да
Использование указателей C2 : Нет

Коррекция смещения при чтении : 6
Способность читать области Lead-in и Lead-out : Нет
Заполнение пропущенных сэмплов тишиной : Да
Удаление блоков с тишиной в начале и конце : Нет
При вычислениях CRC использовались нулевые сэмплы : Да
Интерфейс : Встроенный Win32-интерфейс для Win NT/2000

Выходной формат : Пользовательский кодировщик
Выбранный битрейт : 768 kBit/s
Качество : Высокий
Добавление ID3-тэга : Нет
Утилита сжатия : C:Program FilesExact Audio CopyFLACFLAC.EXE
Дополнительные параметры : -6 -V -T "ARTIST=%a" -T "TITLE=%t" -T "ALBUM=%g" -T "DATE=%y" -T "TRACKNUMBER=%n" -T "GENRE=%m" -T "COMMENT=%e" %j--picture="%i"%j %s -o %d

TOC извлечённого CD

Трек | Старт | Длительность | Начальный сектор | Конечный сектор
---------------------------------------------------------------------
1 | 0:00.00 | 5:01.25 | 0 | 22599
2 | 5:01.25 | 3:39.02 | 22600 | 39026
3 | 8:40.27 | 3:38.02 | 39027 | 55378
4 | 12:18.29 | 2:23.57 | 55379 | 66160
5 | 14:42.11 | 4:03.30 | 66161 | 84415
6 | 18:45.41 | 2:14.18 | 84416 | 94483
 
b9372b3bf193be792f9a64ce457d5fd45bd6e777(2008) Nirvana / The Best Of (Grunge, Alternative) [FLAC (image+.сue), lossless] (2008) Nirvana / The Best Of (Grunge, Alternative) [FLAC (image+.сue), lossless] " />

Аплоадер: Админ, дата: 29-05-2012, 12:50, торрент скачан: 359 раз

Понравилась раздача? Посмотрите эти:
  • (1993) Coverdale & Page / Coverdale & Page (EMI Holland)(Hard Rock) [FLAC ( ...
  • (2000) a-ha / Minor Earth | Major Sky (Alternative Rock, Synth-pop ) [FLAC ...
  • (2013) Маклай и Ганза / Статус-Кво (Rap, Hip-Hop) [FLAC (Tracks+.Cue), Loss ...
  • (2013) Баста / Баста 4 (Rap, Hip-Hop) [FLAC (Tracks+.Cue), Lossless]
  • (2013) Loc-Dog & Tony VA / Все знают всё (Rap, Hip-Hop) [FLAC (Tracks+.Cue ...
  • (2013) Pinnick Gales Pridgen / Pinnick Gales Pridgen (Hard Rock, Heavy Blue ...
  • (2012) Рем Дигга / Черника (Rap) [FLAC (tracks+.cue), lossless]
  • (2012) Три Кита (Зануда, Gipsy King, Тато) / Три Кита (Rap) [FLAC (tracks+. ...
  • (2010) Schiller / Breathless (Electronic) [FLAC (image+.cue), lossless]
  • (2010) БИ-2 / О чём говорят мужчины (Pop-Rock) [FLAC (image + .cue), lossle ...
  • (2011) ГРОТ / О Пути По Встречной (Rap) [FLAC (tracks+.cue), lossless]
  • (1997) Jazz Cafe / Simple Pleasures (Jazz, instrumental) [FLAC (image+.сue ...
  • (Дискография, 2006-2011) Светлана Копылова (Православная песня) [FLAC (imag ...
  • (2012) The Rasmus / The Rasmus (Alternative Rock/Melodic Rock) [FLAC (track ...
  • (1993) Mireille Mathieu / Chante Piaf (Pop) [FLAC (tracks+.cue), lossless]
  • (2012) The Blues Overdrive / The Blues Overdrive (Blues-Rock) [FLAC (image+ ...
  • (2005) Анна Герман / Наши любимые песни (Pop, Retro) [FLAC(image+.cue), los ...
  • (2012) Триада / Мои глаза открыты (Rap) [FLAC (tracks+.cue), lossless]
  • (2012) KREC / Молча проще (Rap) [FLAC (tracks+.cue), lossless]
  • (1986) Dark Angel / Darkness Descends (Thrash Metal) [FLAC (image+.cue), lo ...
  • (2001) Лучшие звуки природы (Звуки природы) [FLAC (image+.cue), lossless]
  • (2011) Ассаи / ОМ (Rap) [FLAC (tracks+.cue), lossless]
  • (2012) Strange Contact / Retro (Synthpop) [FLAC (image+.сue), lossless]
  • (2012) Ария / Live In Studio (Heavy Metal) [FLAC (image+.сue), lossless]
  • (2012) Словетский / Мозайка (Rap) [FLAC (tracks+.cue), lossless]
  • Информация
    Посетители, находящиеся в группе Гости, не могут оставлять комментарии к данной публикации.