вход на сайт

Имя пользователя :
Пароль :

Восстановление пароля Регистрация
(2011) 7eventh Time Down / Alive In You (Alternative Rock/Modern Rock/Christian) [FLAC (tracks+.cue), lossless]
Рейтинг:
(голосов: 1)



[img]{THEME}/images/logopost.png[/img]





Альбом: Alive In You
Тип альбома: Студийный
Год выпуска: 2011
Страна: США
Жанр: Alternative Rock/Modern Rock/Christian
Формат: FLAC (tracks+.cue)
Битрейт: lossless
Log-файл: Присутствует
Продолжительность: 00:37:47


01. I Need Someone (03:44)
02. Alive In You (03:28)
03. What About Tonight (03:28)
04. Get Me To You (03:48)
05. World Changer (03:51)
06. Do You Believe (04:03)
07. Jesus Machine (02:48)
08. Love Parade (03:37)
09. Worship Jesus (04:33)
10. Rusty Nails (04:25)


"Отчет "XLD" ▼TextX Lossless Decoder version 20120407 (140.0)

XLD extraction logfile from 2012-05-08 23:15:05 +0000

7eventh Time Down / Alive In You

Used drive : MATSHITA DVD-R UJ-898 (revision HE13)

Ripper mode : XLD Secure Ripper
Disable audio cache : OK for the drive with a cache less than 1375KiB
Make use of C2 pointers : NO
Read offset correction : 102
Max retry count : 20
Gap status : Analyzed, Appended (except HTOA)

TOC of the extracted CD
Track | Start | Length | Start sector | End sector
---------------------------------------------------------
1 | 00:00:00 | 03:44:12 | 0 | 16811
2 | 03:44:12 | 03:28:12 | 16812 | 32423
3 | 07:12:24 | 03:28:21 | 32424 | 48044
4 | 10:40:45 | 03:48:06 | 48045 | 65150
5 | 14:28:51 | 03:51:26 | 65151 | 82501
6 | 18:20:02 | 04:03:04 | 82502 | 100730
7 | 22:23:06 | 02:48:10 | 100731 | 113340
8 | 25:11:16 | 03:37:12 | 113341 | 129627
9 | 28:48:28 | 04:33:29 | 129628 | 150131
10 | 33:21:57 | 04:25:42 | 150132 | 170048

AccurateRip Summary
Disc not found in AccurateRip DB.

All Tracks
Album gain : -11.46 dB
Peak : 0.998077
Statistics
Read error : 0
Jitter error (maybe fixed) : 0
Retry sector count : 0
Damaged sector count : 0

Track 01
Filename : /Volumes/NO NAME/Flac Music/7eventh Time Down/7eventh Time Down - Alive In You (2011) [FLAC]/01 I Need Someone.flac
Pre-gap length : 00:02:00

Track gain : -12.05 dB
Peak : 0.998016
CRC32 hash (test run) : 8F012E68
CRC32 hash : 8F012E68
CRC32 hash (skip zero) : F8A4752F
AccurateRip signature : F340B4F9
->Track not present in AccurateRip database.
 
745c930eec21a485c6eb77f12257e90c75061401(2011) 7eventh Time Down / Alive In You (Alternative Rock/Modern Rock/Christian) [FLAC (tracks+.cue), lossless] (2011) 7eventh Time Down / Alive In You (Alternative Rock/Modern Rock/Christian) [FLAC (tracks+.cue), lossless] " />

Аплоадер: Админ, дата: 14-05-2012, 14:25, торрент скачан: 359 раз

Понравилась раздача? Посмотрите эти:
  • (2013) Kanye West | Yeezus (Rap|Experimental Hip-Hop) [FLAC (tracks+.cue), ...
  • (2012) The Lumineers / The Lumineers (Indie-folk, Folk-rock) [FLAC (tracks+ ...
  • (2013) Paramore / Paramore (Japan Edition) (Alternative Rock) [FLAC (tracks ...
  • (2012) Владимир Кузьмин / Endorfin (Русский Рок) [FLAC (image+.cue), lossle ...
  • (2010) Katie Melua / The House ( jazz-pop, vocal jazz) [FLAC (tracks + .cu ...
  • (2011) Moby / Destroyed (Electronic, Downtempo, Ambient) [FLAC (tracks+.cue ...
  • (2010) Sungha Jung / Perfect Blue (Acoustic, Fingerstyle Guitar) [FLAC (tra ...
  • (2012) Bruce Springsteen / Wrecking Ball (Folk Rock) [FLAC (tracks+.cue),l ...
  • (2012) Norah Jones / Little Broken Hearts (Vocal Jazz, Alternative Rock) [F ...
  • (2009) Paul Cardall / Sacred Piano (New Age) [FLAC (tracks+.cue), lossless] ...
  • (2012) Hans Zimmer / The Dark Knight Rises (Film score) [FLAC (tracks+.cu ...
  • (2012) Linkin Park / LP Underground 12 (Alternative Rock) [FLAC (tracks+.cu ...
  • (2010) Enduser / 1-3 (DnB, Dubstep, Breakcore) [FLAC (tracks+.cue), lossles ...
  • (2009) Miley Cyrus / The Time of Our Lives (Pop) [FLAC (tracks+.cue), lossl ...
  • (2011) Linkin Park / Iridescent (Alternative Rock) [FLAC(image+.cue), lossl ...
  • (2012) Lana Del Rey / Born To Die (Indie Pop) [FLAC (tracks+.cue), lossless ...
  • (2012) The Fray / Scars & Stories (Alternative/Rock/Piano Rock) [FLAC (trac ...
  • (2012) Unheilig / Lichter der Stadt (Limited Edition, 2CD) (Industrial, Got ...
  • (2012) Young Guns / Bones (Alternative Rock) [FLAC (tracks +.cue), lossless ...
  • (2012) Switchfoot / Vice Re-Verses (Remixes) (Alternative, Christian Rock, ...
  • Информация
    Посетители, находящиеся в группе Гости, не могут оставлять комментарии к данной публикации.