вход на сайт

Имя пользователя :
Пароль :

Восстановление пароля Регистрация
(2012) Switchfoot / Vice Re-Verses (Remixes) (Alternative, Christian Rock, Post-Grunge) [FLAC (tracks+.cue), lossless]
Рейтинг:
(голосов: 1)



[img]{THEME}/images/logopost.png[/img]





Альбом: Vice Re-Verses (Remixes)
Тип альбома: Remix
Год выпуска: 2012
Страна: США
Жанр: Alternative, Christian Rock, Post-Grunge
Формат: FLAC (tracks+.cue)
Битрейт: lossless
Log-файл: Присутствует
Продолжительность: 00:25:50


01. The Original (JT Daly Of Paper Route Remix) (03:58)
02. Selling The News (Photek Remix) (03:27)
03. Blinding Light (Adam Young Of Owl City Remix) (04:38)
04. Darkest Horses (JT Daly Of Paper Route Remix) (03:59)
05. Vice Verses (Darren King Remix) (05:03)
06. The War Inside (DnJ Remix) (04:44)


Отчет "XLD" ▼TextX Lossless Decoder version 20120407 (140.0)

XLD extraction logfile from 2012-04-22 00:16:19 +0000

Switchfoot / Vice Re-Verses

Used drive : HL-DT-ST DVDRW GWA4080MA (revision AE38)

Ripper mode : XLD Secure Ripper
Disable audio cache : OK for the drive with a cache less than 1375KiB
Make use of C2 pointers : NO
Read offset correction : 667
Max retry count : 20
Gap status : Analyzed, Appended

TOC of the extracted CD
Track | Start | Length | Start sector | End sector
---------------------------------------------------------
1 | 00:00:00 | 03:58:17 | 0 | 17866
2 | 03:58:17 | 03:27:35 | 17867 | 33426
3 | 07:25:52 | 04:38:03 | 33427 | 54279
4 | 12:03:55 | 03:59:17 | 54280 | 72221
5 | 16:02:72 | 05:03:25 | 72222 | 94971
6 | 21:06:22 | 04:44:52 | 94972 | 116323

AccurateRip Summary
Disc not found in AccurateRip DB.

All Tracks
Album gain : -10.25 dB
Peak : 1.000000
Statistics
Read error : 0
Jitter error (maybe fixed) : 0
Retry sector count : 0
Damaged sector count : 0

Track 01
Filename : /Users/ryanjohnradtke/Music/upload whatcd/Switchfoot - Vice Re-Verses - FLAC/01 The Original (JT Daly Of Paper Route Remix).flac
Pre-gap length : 00:02:00

Track gain : -11.27 dB
Peak : 0.933319
CRC32 hash (test run) : FB0354C7
CRC32 hash : FB0354C7
CRC32 hash (skip zero) : ED964DCF
AccurateRip signature : 0F3FF7C9
->Track not present in AccurateRip database.
Statistics
Read error : 0
Jitter error (maybe fixed) : 0
Retry sector count : 0
Damaged sector count&nbs
1ed94467e79c41529c7400a19922a7bbab9fc777(2012) Switchfoot / Vice Re-Verses (Remixes) (Alternative, Christian Rock, Post-Grunge) [FLAC (tracks+.cue), lossless] (2012) Switchfoot / Vice Re-Verses (Remixes) (Alternative, Christian Rock, Post-Grunge) [FLAC (tracks+.cue), lossless] " />

Аплоадер: Админ, дата: 12-05-2012, 14:40, торрент скачан: 359 раз

Понравилась раздача? Посмотрите эти:
  • (2013) Kanye West | Yeezus (Rap|Experimental Hip-Hop) [FLAC (tracks+.cue), ...
  • (2012) The Lumineers / The Lumineers (Indie-folk, Folk-rock) [FLAC (tracks+ ...
  • (2013) Paramore / Paramore (Japan Edition) (Alternative Rock) [FLAC (tracks ...
  • (2012) Владимир Кузьмин / Endorfin (Русский Рок) [FLAC (image+.cue), lossle ...
  • (2011) Switchfoot / Vice Verses (Alt. Rock | Post-Grunge) [MP3, 320/CBR]
  • (2010) Faithless / Not Going Home (Trance/House) [FLAC (tracks), lossless]
  • (2010) Katie Melua / The House ( jazz-pop, vocal jazz) [FLAC (tracks + .cu ...
  • (2011) Moby / Destroyed (Electronic, Downtempo, Ambient) [FLAC (tracks+.cue ...
  • (2010) Sungha Jung / Perfect Blue (Acoustic, Fingerstyle Guitar) [FLAC (tra ...
  • (2012) Bruce Springsteen / Wrecking Ball (Folk Rock) [FLAC (tracks+.cue),l ...
  • (2012) Norah Jones / Little Broken Hearts (Vocal Jazz, Alternative Rock) [F ...
  • (2012) Hans Zimmer / The Dark Knight Rises (Film score) [FLAC (tracks+.cu ...
  • (2012) Mouse On Mars / Parastrophics (Leftfield, Abstract, Rhythmic Noise, ...
  • (2012) Linkin Park / LP Underground 12 (Alternative Rock) [FLAC (tracks+.cu ...
  • (2010) Enduser / 1-3 (DnB, Dubstep, Breakcore) [FLAC (tracks+.cue), lossles ...
  • (2012) Lana Del Rey / Born To Die (Indie Pop) [FLAC (tracks+.cue), lossless ...
  • (2012) The Fray / Scars & Stories (Alternative/Rock/Piano Rock) [FLAC (trac ...
  • (2012) Unheilig / Lichter der Stadt (Limited Edition, 2CD) (Industrial, Got ...
  • (2012) Young Guns / Bones (Alternative Rock) [FLAC (tracks +.cue), lossless ...
  • (2011) 7eventh Time Down / Alive In You (Alternative Rock/Modern Rock/Chris ...
  • Информация
    Посетители, находящиеся в группе Гости, не могут оставлять комментарии к данной публикации.