вход на сайт

Имя пользователя :
Пароль :

Восстановление пароля Регистрация
(2011) Sylvan / Sceneries (Neo-Progressive) [FLAC (image+.cue), lossless]
Рейтинг:
(голосов: 1)



[img]{THEME}/images/logopost.png[/img]





Альбом: Sceneries
Тип альбома: Студийный
Год выпуска: 2011
Страна: Германия
Жанр: Neo-Progressive
Формат: FLAC (image+.cue)
Битрейт: lossless
Log-файл: Присутствует
Продолжительность: 01:30:52


CD1:
Продолжительность: 00:59:58
01. Chapter 1: The Fountain Of Glow - Part One(3:59)
02. Chapter 1: The Fountain Of Glow - Part Two(5:08)
03. Chapter 1: The Fountain Of Glow - Part Three(5:48)
04. Chapter 2: Share The World With Me - Part One(2:32)
05. Chapter 2: Share The World With Me - Part Two(3:46)
06. Chapter 2: Share The World With Me - Part Three(4:22)
07. Chapter 2: Share The World With Me - Part Four(4:30)
08. Chapter 3: The Words You Hide - Part One(6:49)
09. Chapter 3: The Words You Hide - Part Two(3:53)
10. Chapter 3: The Words You Hide - Part Three(4:24)
11. Chapter 3: The Words You Hide - Part Four(5:05)
CD2:
Продолжительность: 00:40:37
01. Chapter 4: The Waters I traveled - Part One(3:09)
02. Chapter 4: The Waters I traveled - Part Two(5:45)
03. Chapter 4: The Waters I traveled - Part Three(6:35)
04. Chapter 4: The Waters I traveled - Part Four(4:34)
05. Chapter 5: Farewell to old Friends - Part One(4:58)
06. Chapter 5: Farewell to old Friends - Part Two(5:25)
07. Chapter 5: Farewell to old Friends - Part Three(5:10)
08. Chapter 5: Farewell to old Friends - Part Four(5:01)


Отчет "EAC" (CD1) ▼TextExact Audio Copy V1.0 beta 3 from 29. August 2011

EAC extraction logfile from 18. March 2012, 21:12

Sylvan / Sceneries (CD1)

Used drive : TEAC CD-W516EB Adapter: 0 ID: 0

Read mode : Secure
Utilize accurate stream : Yes
Defeat audio cache : Yes
Make use of C2 pointers : No

Read offset correction : 685
Overread into Lead-In and Lead-Out : No
Fill up missing offset samples with silence : Yes
Delete leading and trailing silent blocks : No
Null samples used in CRC calculations : Yes
Used interface : Native Win32 interface for Win NT & 2000

Used output format : User Defined Encoder
Selected bitrate : 1024 kBit/s
Quality : High
Add ID3 tag : Yes
Command line compressor : C:Program Files (x86)FLACflac.exe
Additional command line options : -6 -V -T "ARTIST=%artist%" -T "TITLE=%title%" -T "ALBUM=%albumtitle%" -T "DATE=%year%" -T "TRACKNUMBER=%tracknr%" -T "GENRE=%genre%" -T "COMMENT=%comment%" %source% -o %dest%

TOC of the extracted CD

Track | Start | Length | Start sector | End sector
---------------------------------------------------------
1 | 0:00.00 | 3:59.27 | 0 | 17951
2 | 3:59.27 | 5:08.07 | 17952 | 41058
3 | 9:07.34 | 5:47.57 | 41059 | 67140
4 | 14:55.16 | 2:32.17 | 67141 | 78557
5 | 17:27.33 | 3:45.68 | 78558 | 95500
6 | 21:13.26 | 4:22.13 | 95501 | 115163
7 | 25:35.39 | 4:29.64 | 115164 | 135402
8 | 30:05.28 | 6:49.13 | 135403 | 166090
9 | 36:54.41 | 3:52.46 | 166091 | 183536
10 | 40:47.12 | 4:23.42 | 183537 | 203303
11 | 45:10.54 | 5:04.59 | 203304 | 226162

Range status and errors

Selected range

Filename Y:EACwurenshSylvanSylvan - Sceneries (CD1).wav

Peak level 99.6 %
Extraction speed 7.4 X
Range quality 100.0 %
Test CRC 1E9A1561
Copy CRC 1E9A1561
Copy OK

No errors occurred

AccurateRip summary

Track 1 accurately ripped (confidence 4) [DDC92C8D] (AR v1)
Track 2 accurately ripped (confidence 4) [782624EC] (AR v1)
Track 3 accurately ripped (confidence 4) [C03F1C23] (AR v1)
Track 4 accurately ripped (confidence 4) [6411D606] (AR v1)
Track 5 accurately ripped (confidence 4) [E8907782] (AR v1)
Track 6 accurately ripped (confidence 4) [F03C0F83] (AR v1)
Track 7 accurately ripped (confidence 4) [A38849B0] (AR v1)
Track 8 accurately ripped (confidence 4) [4677A6DD] (AR v1)
Track 9 accurately ripped (confidence 4) [FF2C80CC] (AR v1)
Track 10 accurately ripped (confidence 4) [CFEBA655] (AR v1)
Track 11 accurately ripped (confidence 4) [5A360C67] (AR v1)

All tracks accurately ripped

End of stat
e378e45339a514811a2431176f3454bf595e6068(2011) Sylvan / Sceneries (Neo-Progressive) [FLAC (image+.cue), lossless] (2011) Sylvan / Sceneries (Neo-Progressive) [FLAC (image+.cue), lossless] " />

Аплоадер: Админ, дата: 6-04-2012, 14:50, торрент скачан: 359 раз

Понравилась раздача? Посмотрите эти:
  • [Видеоуроки] [BlenderCookie] Blender: Vehicle Modeling Training Series [201 ...
  • (2013) Linkin Park & Steve Aoki / A Light That Never Comes (Electronic Rock ...
  • (2002) Urker / Уркер / Made In Kazakhstan (Pop, Ethno) [FLAC (image+.cue), ...
  • (Soundtrack,2002) Пианист / The Pianist - Music from the Motion Picture (Fr ...
  • ( Soundtrack,1999) VA - American Beauty Original Motion Picture Soundtrack ...
  • (Дискография) 1981-2009 Depeche Mode (Electronic, Synthpop) [FLAC (tracks+ ...
  • (1989) Kaoma / Lambada (lambada / latin / ethnic) [FLAC (image+.cue), lossl ...
  • Slayer - 12 CD (Original Japanese Editions) (Thrash Metal) [FLAC(image+.cue ...
  • (1968) Ten Years After / Undead (Rock / Blues / Blues Rock) [Flac (tracks+. ...
  • (2003) Пикник / Говорит и показывает (Полная история) (Rock) [WavPack (imag ...
  • (Дискография1983 - 1985) Eddie Jobson (ProgRock, Electronic) [APE (image+.c ...
  • (Дискография, 1985 - 2009) Sandra (Pop) [APE (image+.cue), FLAC (image+.cue ...
  • (2002) PPK (ППК) / ReLoad. Russian Trance (Trance) [FLAC (tracks+cue), loss ...
  • (2007) Maximum the Hormone / マキシマム ザ ホルモン / Buiikikaesu (Hardcore / J-Rock ...
  • (1999) Muffler / Muffler (Drum & Bass) [FLAC (tracks+.cue), lossless]
  • [EN]Joe Astorino (R&S CCIE #24347).Видео курс по маршрутизации и коммутации ...
  • (2011) Linkin Park / Iridescent (Alternative Rock) [FLAC(image+.cue), lossl ...
  • (Дискография, 2002 - 2012) Rodrigo y Gabriela (Acoustic, Flamenco, Classica ...
  • (2012) Les Friction / Les Friction (Alt. Rock/Neo-Classical/Orchestral) [FL ...
  • (2011) SeeS / The enD (Progressive/Math Metal) [FLAC (tracks+.cue), lossles ...
  • (2011) Volumes / Via (Progressive Metalcore/Math Metal) [FLAC (image+.cue), ...
  • (2012) Young Guns / Bones (Alternative Rock) [FLAC (tracks +.cue), lossless ...
  • (2009) Exivious (Ex. Cynic) / Exivious (Progressive Metal/Death Metal) [FLA ...
  • (2012) KoRn feat. Skrillex / Chaos Lives In Everything (UK Promo) (Nu-metal ...
  • (2012) Nine Lashes / World We View (Alt.Rock/Alt.Metal/Christian) [FLAC (tr ...
  • Информация
    Посетители, находящиеся в группе Гости, не могут оставлять комментарии к данной публикации.