вход на сайт

Имя пользователя :
Пароль :

Восстановление пароля Регистрация
(2012) Young Guns / Bones (Alternative Rock) [FLAC (tracks +.cue), lossless]
Рейтинг:
(голосов: 1)



[img]{THEME}/images/logopost.png[/img]





Альбом: Bones
Тип альбома: Студийный
Год выпуска: 2012
Страна: Великобритания
Жанр: Alternative Rock
Формат: FLAC (tracks +.cue)
Битрейт: lossless
Log-файл: Присутствует
Продолжительность: 00:38:58


01. I Was Born, I Have Lived, I Will Surely Die (03:58)
02. Dearly Departed (03:12)
03. Bones (03:13)
04. Towers (On My Way) (02:39)
05. A Hymn For All I’ve Lost (01:06)
06. You Are Not (03:56)
07. Brother In Arms (03:12)
08. Learn My Lesson (03:20)
09. Everything Ends (04:11)
10. Interlude (01:39)
11. Headlights (04:05)
12. Broadfields (04:22)


Отчет "XLD" ▼TextX Lossless Decoder version 20120226 (139.1)

XLD extraction logfile from 2012-03-18 01:42:40 +0000

Young Guns / Bones

Used drive : MATSHITA DVD-R UJ-898 (revision HC10)

Ripper mode : XLD Secure Ripper
Disable audio cache : OK for the drive with a cache less than 1375KiB
Make use of C2 pointers : NO
Read offset correction : 102
Max retry count : 100
Gap status : Analyzed, Appended (except HTOA)

TOC of the extracted CD
Track | Start | Length | Start sector | End sector
---------------------------------------------------------
1 | 00:00:00 | 03:58:33 | 0 | 17882
2 | 03:58:33 | 03:12:55 | 17883 | 32337
3 | 07:11:13 | 03:13:61 | 32338 | 46873
4 | 10:24:74 | 02:39:14 | 46874 | 58812
5 | 13:04:13 | 01:06:35 | 58813 | 63797
6 | 14:10:48 | 03:56:25 | 63798 | 81522
7 | 18:06:73 | 03:12:10 | 81523 | 95932
8 | 21:19:08 | 03:20:51 | 95933 | 110983
9 | 24:39:59 | 04:11:33 | 110984 | 129841
10 | 28:51:17 | 01:39:26 | 129842 | 137292
11 | 30:30:43 | 04:05:64 | 137293 | 155731
12 | 34:36:32 | 04:22:43 | 155732 | 175424

AccurateRip Summary
Track 01 : OK (AR2, confidence 1)
Track 02 : OK (AR2, confidence 1)
Track 03 : OK (AR2, confidence 1)
Track 04 : OK (AR2, confidence 1)
Track 05 : OK (AR2, confidence 1)
Track 06 : OK (AR2, confidence 1)
Track 07 : OK (AR2, confidence 1)
Track 08 : OK (AR2, confidence 1)
Track 09 : OK (AR2, confidence 1)
Track 10 : OK (AR2, confidence 1)
Track 11 : OK (AR2, confidence 1)
Track 12 : OK (AR2, confidence 1)
->All tracks accurately ripped.

All Tracks
Album gain : -10.56 dB
Peak : 1.000000
Statistics
Read error : 0
Jitter error (maybe fixed) : 0
Retry secto
3c7f697b46e86942d2d36a4111df537cfdebac25(2012) Young Guns / Bones (Alternative Rock) [FLAC (tracks +.cue), lossless] (2012) Young Guns / Bones (Alternative Rock) [FLAC (tracks +.cue), lossless] " />

Аплоадер: Админ, дата: 2-04-2012, 17:14, торрент скачан: 359 раз

Понравилась раздача? Посмотрите эти:
  • (2013) Kanye West | Yeezus (Rap|Experimental Hip-Hop) [FLAC (tracks+.cue), ...
  • (2013) Paramore / Paramore (Japan Edition) (Alternative Rock) [FLAC (tracks ...
  • (2002) Urker / Уркер / Made In Kazakhstan (Pop, Ethno) [FLAC (image+.cue), ...
  • (2012) Владимир Кузьмин / Endorfin (Русский Рок) [FLAC (image+.cue), lossle ...
  • (2012) Young Guns / Bones (Alt.rock) [MP3, 320/CBR]
  • ( Soundtrack,1999) VA - American Beauty Original Motion Picture Soundtrack ...
  • (Дискография) 1981-2009 Depeche Mode (Electronic, Synthpop) [FLAC (tracks+ ...
  • Slayer - 12 CD (Original Japanese Editions) (Thrash Metal) [FLAC(image+.cue ...
  • (1968) Ten Years After / Undead (Rock / Blues / Blues Rock) [Flac (tracks+. ...
  • (2011) Moby / Destroyed (Electronic, Downtempo, Ambient) [FLAC (tracks+.cue ...
  • (2003) Пикник / Говорит и показывает (Полная история) (Rock) [WavPack (imag ...
  • (Дискография1983 - 1985) Eddie Jobson (ProgRock, Electronic) [APE (image+.c ...
  • (Дискография, 1985 - 2009) Sandra (Pop) [APE (image+.cue), FLAC (image+.cue ...
  • (2010) Sungha Jung / Perfect Blue (Acoustic, Fingerstyle Guitar) [FLAC (tra ...
  • (2012) Bruce Springsteen / Wrecking Ball (Folk Rock) [FLAC (tracks+.cue),l ...
  • (2012) Norah Jones / Little Broken Hearts (Vocal Jazz, Alternative Rock) [F ...
  • (2012) Hans Zimmer / The Dark Knight Rises (Film score) [FLAC (tracks+.cu ...
  • (2012) Linkin Park / LP Underground 12 (Alternative Rock) [FLAC (tracks+.cu ...
  • (Дискография, 2002 - 2012) Rodrigo y Gabriela (Acoustic, Flamenco, Classica ...
  • (2012) Lana Del Rey / Born To Die (Indie Pop) [FLAC (tracks+.cue), lossless ...
  • (2012) The Fray / Scars & Stories (Alternative/Rock/Piano Rock) [FLAC (trac ...
  • (2012) Unheilig / Lichter der Stadt (Limited Edition, 2CD) (Industrial, Got ...
  • (2011) Sylvan / Sceneries (Neo-Progressive) [FLAC (image+.cue), lossless]
  • (2012) Switchfoot / Vice Re-Verses (Remixes) (Alternative, Christian Rock, ...
  • (2011) 7eventh Time Down / Alive In You (Alternative Rock/Modern Rock/Chris ...
  • Информация
    Посетители, находящиеся в группе Гости, не могут оставлять комментарии к данной публикации.