вход на сайт

Имя пользователя :
Пароль :

Восстановление пароля Регистрация
(2012) Fox / 2012 (Melodic Hard Rock) [FLAC (image +.cue), lossless]
Рейтинг:
(голосов: 1)



[img]{THEME}/images/logopost.png[/img]





Альбом: 2012
Тип альбома: Студийный
Год выпуска: 2012
Страна: Швейцария
Жанр: Melodic Hard Rock
Формат: FLAC (image +.cue)
Битрейт: lossless
Log-файл: Присутствует
Продолжительность: 00:59:58


01. Problem Child(4:12)
02. Beds Are Burning(4:49)
03. Raise Your Hands(5:06)
04. Nothing Without You(4:53)
05. Black Sunday(5:48)
06. Flashed(5:15)
07. Anytime(3:43)
08. Home Again(3:18)
09. We Are All(3:16)
10. Sell It To Me(4:11)
11. Down Down(15:27)


Отчет "EAC" ▼TextExact Audio Copy V1.0 beta 3 from 29. August 2011

EAC extraction logfile from 24. March 2012, 20:50

Fox / Fox 2012

Used drive : MATSHITABD-CMB UJ242AS Adapter: 0 ID: 1

Read mode : Secure
Utilize accurate stream : Yes
Defeat audio cache : Yes
Make use of C2 pointers : No

Read offset correction : 103
Overread into Lead-In and Lead-Out : No
Fill up missing offset samples with silence : Yes
Delete leading and trailing silent blocks : No
Null samples used in CRC calculations : Yes
Used interface : Installed external ASPI interface

Used output format : User Defined Encoder
Selected bitrate : 1024 kBit/s
Quality : High
Add ID3 tag : Yes
Command line compressor : C:Program Files (x86)Exact Audio CopyFlacflac.exe
Additional command line options : -V -8 -T "Date=%year%" -T "Genre=%genre%" %source%

TOC of the extracted CD

Track | Start | Length | Start sector | End sector
---------------------------------------------------------
1 | 0:00.00 | 4:12.09 | 0 | 18908
2 | 4:12.09 | 4:49.03 | 18909 | 40586
3 | 9:01.12 | 5:06.16 | 40587 | 63552
4 | 14:07.28 | 4:52.40 | 63553 | 85492
5 | 18:59.68 | 5:48.26 | 85493 | 111618
6 | 24:48.19 | 5:14.44 | 111619 | 135212
7 | 30:02.63 | 3:43.26 | 135213 | 151963
8 | 33:46.14 | 3:18.09 | 151964 | 166822
9 | 37:04.23 | 3:15.61 | 166823 | 181508
10 | 40:20.09 | 4:11.03 | 181509 | 200336
11 | 44:31.12 | 15:26.63 | 200337 | 269849

Range status and errors

Selected range

Filename C:EACripFox - Fox 2012.wav

Peak level 100.0 %
Extraction speed 2.6 X
Range quality 100.0 %
Test CRC 5B52C73C
Copy CRC 5B52C73C
Copy OK

No errors occurred

Ac
948d136d4c6e61e1c16652ae4aabc19ff235f8f2(2012) Fox / 2012 (Melodic Hard Rock) [FLAC (image +.cue), lossless] (2012) Fox / 2012 (Melodic Hard Rock) [FLAC (image +.cue), lossless] " />

Аплоадер: Админ, дата: 2-04-2012, 16:55, торрент скачан: 359 раз

Понравилась раздача? Посмотрите эти:
  • (1996) George Michael / Older (1st Press Japan) (Electronic, Pop/Rock) [FLA ...
  • (2013) Linkin Park & Steve Aoki / A Light That Never Comes (Electronic Rock ...
  • (2013) Depeche Mode - Heaven (CD Maxi-Single) (Synthpop) [FLAC (image+.cue) ...
  • (1989) Kaoma / Lambada (lambada / latin / ethnic) [FLAC (image+.cue), lossl ...
  • (2010) Ассаи / Лифт (Rap) [FLAC(image+.cue), lossless]
  • (2011) Scar Symmetry / The Unseen Empire (Melodic Death Metal) [FLAC (image ...
  • (Дискография, 1988-2011) Kingdom Come (Hard&Heavy,Glam Metal) [FLAC (image+ ...
  • (2012) Uriah Heep / Logical Revelations (Hard Rock) [FLAC (image +.cue), lo ...
  • (2012) Linkin Park / Burn It Down (Alternative Rock) (Single) [FLAC (image+ ...
  • (2012) Kreator / Phantom Antichrist (Thrash Metal) [FLAC (image+.cue), loss ...
  • (2012) George Michael / White Light (Pop, Electronic) [FLAC (image+.cue), l ...
  • (2006) The Rasmus / Shot (Single) (Alternative Rock) [FLAC (tracks+.cue), l ...
  • (2012) Madonna / Superstar (Pop) [FLAC (image+.cue), lossless]
  • (2011) Linkin Park / Iridescent (Alternative Rock) [FLAC(image+.cue), lossl ...
  • (2011) Stargazery / Eye On The Sky (Heavy Metal) [FLAC (image+.cue), lossle ...
  • (2011) Rammstein / Mein Land (Neue Deutsche Harte, Industrial, Tanz-Metal) ...
  • (2012) Anneke van Giersbergen / Everything Is Changing (Alternative Rock/Fe ...
  • (2011) Volumes / Via (Progressive Metalcore/Math Metal) [FLAC (image+.cue), ...
  • (2012) KoRn feat. Skrillex / Chaos Lives In Everything (UK Promo) (Nu-metal ...
  • (2012) Game Over / For Humanity (Thrash Metal) [FLAC (image+.cue), lossless ...
  • Информация
    Посетители, находящиеся в группе Гости, не могут оставлять комментарии к данной публикации.