вход на сайт

Имя пользователя :
Пароль :

Восстановление пароля Регистрация
(2012) Unheilig / Lichter der Stadt (Limited Edition, 2CD) (Industrial, Gothic Rock) [FLAC (image+.сue), lossless]
Рейтинг:
(голосов: 1)



[img]{THEME}/images/logopost.png[/img]



Исполнитель: Unheilig
Альбом: Lichter der Stadt (Limited Edition, 2CD)
Страна: Германия
Тип альбома: Студийный
Год выпуска: 2012
Жанр:Industrial Gothic Rock
Формат: FLAC (image+.сue)
Битрейт: lossless
Log-файл: Присутствует
Продолжительность: 1:42:57

Tреклист ▼
CD1 ▼
Продолжительность: 01:03:58

01. Das Licht (Intro) (3:36)
02. Herzwerk (3:35)
03. So Wie Du Warst (3:51)
04. Tage Wie Gold (3:35)
05. Wie Wir Waren (3:40)
06. Unsterblich (4:01)
07. Feuerland (3:44)
08. Lichter Der Stadt (4:16)
09. Ein Guter Weg (3:54)
10. Ein Grosses Leben (3:35)
11. Brenne Auf (3:49)
12. Zeitreise (4:01)
13. Das Leben Ist Schoen (3:43)
14. Eisenmann (4:23)
15. Vergessen (4:14)
16. Die Stadt (Instrumental) (6:02)


CD2 ▼
Продолжительность: 00:33:58

1. Brenne Auf (Demoversion) (3:37)
2. Das Leben Ist Schoen (Demoversion) (3:35)
3. So Wie Du Warst (Demoversion) (3:23)
4. Ein Grosses Leben (Demoversion) (4:20)
5. Ein Guter Weg (Demoversion) (4:02)
6. Herzwerk (Demoversion) (4:00)
7. Wie Wir Waren (Demoversion) (3:42)
8. Unsterblich (Demoversion) (4:00)
9. Vergessen (Demoversion) (3:19)
10. Zeitreise (Demoversion) (5:01)


Лог создания рипа ▼

CD1 ▼X Lossless Decoder version 20120120 (139.0)

XLD extraction logfile from 2012-03-24 14:09:57 +0000

Various Artists / Lichter Der Stadt

Used drive : MATSHITA DVD-R UJ-898 (revision HC10)

Ripper mode : XLD Secure Ripper
Disable audio cache : OK for the drive with a cache less than 1375KiB
Make use of C2 pointers : NO
Read offset correction : 102
Max retry count : 20
Gap status : Analyzed, Appended

TOC of the extracted CD
Track | Start | Length | Start sector | End sector
---------------------------------------------------------
1 | 00:00:00 | 03:36:12 | 0 | 16211
2 | 03:36:12 | 03:34:53 | 16212 | 32314
3 | 07:10:65 | 03:50:70 | 32315 | 49634
4 | 11:01:60 | 03:34:39 | 49635 | 65723
5 | 14:36:24 | 03:40:06 | 65724 | 82229
6 | 18:16:30 | 04:00:43 | 82230 | 100272
7 | 22:16:73 | 03:44:11 | 100273 | 117083
8 | 26:01:09 | 04:15:74 | 117084 | 136282
9 | 30:17:08 | 03:53:45 | 136283 | 153802
10 | 34:10:53 | 03:35:31 | 153803 | 169958
11 | 37:46:09 | 03:49:09 | 169959 | 187142
12 | 41:35:18 | 04:01:00 | 187143 | 205217
13 | 45:36:18 | 03:42:40 | 205218 | 221907
14 | 49:18:58 | 04:23:16 | 221908 | 241648
15 | 53:41:74 | 04:14:14 | 241649 | 260712
16 | 57:56:13 | 06:02:16 | 260713 | 287878

AccurateRip Summary
Disc not found in AccurateRip DB.

All Tracks
Filename : /Users/tylaite/Desktop/Lichter Der Stadt.flac
CRC32 hash : 7AB1342A
CRC32 hash (skip zero) : 94A295F3
Statistics
Read error : 0
Jitter error (maybe fixed) : 0
Retry sector count : 0
Damaged sector count : 0

Track 01
Pre-gap length : 00:02:00

CRC32 hash : E360A271
CRC32 hash (skip zero) : 869C64E9
AccurateRip signature : 2A66FCA5
->Track not present in AccurateRip database.
Statistics
Read error : 0
Jitter error (maybe fixed) : 0
Retry sector count : 0
Damaged sector count : 0

Track 02
Pre-gap length : 00:02:00

CRC32 hash : AF11DADD
CRC32 hash (skip zero) : B9BCB5F7
AccurateRip signature : BDF5E9F5
->Track not present in AccurateRip database.
Statistics
Read error : 0
Jitter error (maybe fixed) : 0
Retry sector count : 0
Damaged sector count : 0

Track 03
Pre-gap length : 00:02:00

CRC32 hash : B6413058
CRC32 hash (skip zero) : 537E797E
AccurateRip signature : 0DF98C4C
->Track not present in AccurateRip database.
Statistics
Read error : 0
Jitter error (maybe fixed) : 0
Retry sector count : 0
Damaged sector count : 0

Track 04
Pre-gap length : 00:02:00

CRC32 hash : BBDAA6A0
CRC32 hash (skip zero) : 2E8811B4
AccurateRip signature : 40D163E7
->Track not present in AccurateRip database.
Statistics
Read error
9e1e415a1c1d6c55aa8ffcb3650227f56561d465(2012) Unheilig / Lichter der Stadt (Limited Edition, 2CD) (Industrial, Gothic Rock) [FLAC (image+.сue), lossless] (2012) Unheilig / Lichter der Stadt (Limited Edition, 2CD) (Industrial, Gothic Rock) [FLAC (image+.сue), lossless] " />

Аплоадер: Админ, дата: 27-03-2012, 23:12, торрент скачан: 359 раз

Понравилась раздача? Посмотрите эти:
  • (2013) Kanye West | Yeezus (Rap|Experimental Hip-Hop) [FLAC (tracks+.cue), ...
  • (2012) The Lumineers / The Lumineers (Indie-folk, Folk-rock) [FLAC (tracks+ ...
  • (2012) Владимир Кузьмин / Endorfin (Русский Рок) [FLAC (image+.cue), lossle ...
  • (2010) Katie Melua / The House ( jazz-pop, vocal jazz) [FLAC (tracks + .cu ...
  • (2011) Moby / Destroyed (Electronic, Downtempo, Ambient) [FLAC (tracks+.cue ...
  • (2010) Sungha Jung / Perfect Blue (Acoustic, Fingerstyle Guitar) [FLAC (tra ...
  • (2012) Bruce Springsteen / Wrecking Ball (Folk Rock) [FLAC (tracks+.cue),l ...
  • (2012) Norah Jones / Little Broken Hearts (Vocal Jazz, Alternative Rock) [F ...
  • (2012) Hans Zimmer / The Dark Knight Rises (Film score) [FLAC (tracks+.cu ...
  • (2012) Mouse On Mars / Parastrophics (Leftfield, Abstract, Rhythmic Noise, ...
  • (2012) Linkin Park / LP Underground 12 (Alternative Rock) [FLAC (tracks+.cu ...
  • (2010) Enduser / 1-3 (DnB, Dubstep, Breakcore) [FLAC (tracks+.cue), lossles ...
  • (2009) Miley Cyrus / The Time of Our Lives (Pop) [FLAC (tracks+.cue), lossl ...
  • (2011) Linkin Park / Iridescent (Alternative Rock) [FLAC(image+.cue), lossl ...
  • (2011) Rammstein / Mein Land (Neue Deutsche Harte, Industrial, Tanz-Metal) ...
  • (2011) Сурганова & Оркестр / Увидимся скоро (Rock) [FLAC (image+.cue), loss ...
  • (2011) Metallica / Beyond Magnetic (Thrash Metal) [FLAC (image+.cue), lossl ...
  • (2012) Lana Del Rey / Born To Die (Indie Pop) [FLAC (tracks+.cue), lossless ...
  • (2012) Adrenaline Mob / Omerta (Heavy Metal/Progressive/Nu-Metal) [FLAC (im ...
  • (2012) The Fray / Scars & Stories (Alternative/Rock/Piano Rock) [FLAC (trac ...
  • (2012) Young Guns / Bones (Alternative Rock) [FLAC (tracks +.cue), lossless ...
  • (2010) Татьяна Буланова / Романсы (Pop) [FLAC (image+.cue), lossless]
  • (2012) Switchfoot / Vice Re-Verses (Remixes) (Alternative, Christian Rock, ...
  • (2011) 7eventh Time Down / Alive In You (Alternative Rock/Modern Rock/Chris ...
  • (2011) Lou Reed & Metallica / Lulu (Heavy Metal, Hard Rock) [FLAC (image+.c ...
  • Информация
    Посетители, находящиеся в группе Гости, не могут оставлять комментарии к данной публикации.