вход на сайт

Имя пользователя :
Пароль :

Восстановление пароля Регистрация
(2012) Crippled Black Phoenix / (Mankind) The Crafty Ape (Alternative/Indie Rock/Post-Rock/Neo-Psychedelia) [FLAC (image+.cue), lossless]
Рейтинг:
(голосов: 1)



[img]{THEME}/images/logopost.png[/img]





Альбом: (Mankind) The Crafty Ape
Тип альбома: Студийный
Год выпуска: 2012
Страна: Великобритания
Жанр: Alternative/Indie Rock/Post-Rock/Neo-Psychedelia
Формат: FLAC (image+.cue)
Битрейт: lossless
Log-файл: Присутствует
Продолжительность: 01:26:13


CD1: ▼
Продолжительность: 00:52:09
01. Nothing (We Are...)(1:25)
02. The Heart Of Every Country(10:04)
03. Get Down And Live With It(7:11)
04. (In The Yonder Marsh)(4:11)
05. A Letter Concerning Dogheads(6:24)
06. The Brain Poznan(7:37)
07. Laying Traps(4:45)
08. Born In A Hurricane(3:31)
09. Release The Clowns(5:23)
10. (What?)(1:36)


CD2: ▼
Продолжительность: 00:34:04
01. A Suggestion (Not A Very Nice One)(5:54)
02. (Dig, Bury, Deny)(2:09)
03. Operation Mincemeat(6:58)
04. We Will Never Get Out This World Alive(4:13)
05. Faced With Complete Failure, Utter Defiance Is The Only Response(14:50)


Отчет "EAC" (CD1) ▼TextExact Audio Copy V0.99 prebeta 4 from 23. January 2008

EAC extraction logfile from 15. January 2012, 19:02

Crippled Black Phoenix / (Mankind) The Crafty Ape - CD 1

Used drive : HL-DT-STDVD-RAM GSA-H55N Adapter: 0 ID: 0

Read mode : Secure
Utilize accurate stream : Yes
Defeat audio cache : Yes
Make use of C2 pointers : No

Read offset correction : 102
Overread into Lead-In and Lead-Out : No
Fill up missing offset samples with silence : Yes
Delete leading and trailing silent blocks : No
Null samples used in CRC calculations : Yes
Used interface : Native Win32 interface for Win NT & 2000

Used output format : Internal WAV Routines
Sample format : 44.100 Hz; 16 Bit; Stereo

TOC of the extracted CD

Track | Start | Length | Start sector | End sector
---------------------------------------------------------
1 | 0:00.00 | 1:24.73 | 0 | 6372
2 | 1:24.73 | 10:04.24 | 6373 | 51696
3 | 11:29.22 | 7:11.19 | 51697 | 84040
4 | 18:40.41 | 4:11.10 | 84041 | 102875
5 | 22:51.51 | 6:24.25 | 102876 | 131700
6 | 29:16.01 | 7:37.29 | 131701 | 166004
7 | 36:53.30 | 4:45.22 | 166005 | 187401
8 | 41:38.52 | 3:31.25 | 187402 | 203251
9 | 45:10.02 | 5:23.00 | 203252 | 227476
10 | 50:33.02 | 1:35.57 | 227477 | 234658

Range status and errors

Selected range

Filename C:UsersEugeneMusicCrippled Black Phoenix - (Mankind) The Crafty Ape - CD 1.wav

Peak level 100.0 %
Range quality 100.0 %
Copy CRC 039395CA
Copy OK

No errors occurred

AccurateRip summary

Track 1 not present in database
Track 2 not present in database
Track 3 not present in database
Track 4 not present in database
Track 5 not present in database
Track 6 not present in database
Track 7 not present in database
Track 8 not present in database
Track 9 not present in database
Track 10 not present in database

None of the tracks are present in the AccurateRip database

End of status report

Отчет "EAC" (CD2) ▼TextExact Audio Copy V0.99 prebeta 4 from 23. January 2008

EAC extraction logfile from 15. January 2012, 20:00

Crippled Black Phoenix / (Mankind) The Crafty Ape - CD 2

Used drive : HL-DT-STDVD-RAM GSA-H55N Adapter: 0 ID: 0

Read mode : Secure
Utilize accurate stream : Yes
Defeat audio cache : Yes
Make use of C2 pointers : No

Read offset correction : 102
Overread into Lead-In and Lead-Out : No
Fill up missing offset samples with silence : Yes
Delete leading and trailing silent blocks : No
Null samples used in CRC calculations : Yes
Used interface : Native Win32 interface for Win NT & 2000

Used output format : Internal WAV Routines
Sample format : 44.100 Hz; 16 Bit; Stereo

TOC of the extracted CD

Track | Start | Length | Start sector | End sector
---------------------------------------------------------
1 | 0:00.00 | 5:54.17 | 0 | 26566
2 | 5:54.17 | 2:08.50 | 26567 | 36216
3 | 8:02.67 | 6:58.36 | 36217 | 67602
4 | 15:01.28 | 4:12.49 | 67603 | 86551
5 | 19
b023031772174d80e8f30707e0dfab4b979ea2e1(2012) Crippled Black Phoenix / (Mankind) The Crafty Ape (Alternative/Indie Rock/Post-Rock/Neo-Psychedelia) [FLAC (image+.cue), lossless] (2012) Crippled Black Phoenix / (Mankind) The Crafty Ape (Alternative/Indie Rock/Post-Rock/Neo-Psychedelia) [FLAC (image+.cue), lossless] " />

Аплоадер: Админ, дата: 25-03-2012, 21:05, торрент скачан: 359 раз

Понравилась раздача? Посмотрите эти:
  • (2013) Мумий Тролль / SOS Матросу - 2013, (Rock) [FLAC (image+.cue), lossle ...
  • (2009) The Black Eyed Peas / The E.N.D. (The Energy Never Dies) (Target Del ...
  • (2011) Mylene Farmer/ Bleu Noir (CDS + CDM) (Pop) [APE (image+.cue) lossles ...
  • (2011) Scar Symmetry / The Unseen Empire (Melodic Death Metal) [FLAC (image ...
  • (1986 [2010]) Пикник / Иероглиф (Полная история) (Rock) [WavPack (image+.cu ...
  • (2001) Пикник / Египтянин (Полная история) (Rock) [WavPack (image+.cue), lo ...
  • (2003) Пикник / Говорит и показывает (Полная история) (Rock) [WavPack (imag ...
  • (2011) Sepultura / Kairos (Thrash Metal) [Flac(image+.cue)lossless]
  • (2012) Linkin Park / Burn It Down (Alternative Rock) (Single) [FLAC (image+ ...
  • (Дискография, 1987-1999) Obliveon (Technical Thrash Metal) [FLAC (image+.cu ...
  • (2011 15CD Box Set Digitally Remaster) Rush - Sectors (Rock, Progressive R ...
  • (2009) Miley Cyrus / The Time of Our Lives (Pop) [FLAC (tracks+.cue), lossl ...
  • (2010) Кукрыниксы / Всадники Света (Punk Rock) [FLAC (tracks+.cue), lossles ...
  • (2011) VA / Танцевальный Рай 27 (Pop) [FLAC (image+.cue), lossless]
  • (2011) Linkin Park / Iridescent (Alternative Rock) [FLAC(image+.cue), lossl ...
  • (2011) JORN / Live In Black (Heavy/Progressive Metal ) [FLAC (image+.cue), ...
  • (2011) Rammstein / Mein Land (Neue Deutsche Harte, Industrial, Tanz-Metal) ...
  • (2011) Adriano Celentano / Facciamo Finta Che Sia Vero (POP) [FLAC (image+. ...
  • (2011) Сурганова & Оркестр / Увидимся скоро (Rock) [FLAC (image+.cue), loss ...
  • (2011) This Will Destroy You / Tunnel Blanket (Post Rock) [FLAC (tracks+.cu ...
  • (2011) Metallica / Beyond Magnetic (Thrash Metal) [FLAC (image+.cue), lossl ...
  • (2012) Adrenaline Mob / Omerta (Heavy Metal/Progressive/Nu-Metal) [FLAC (im ...
  • (2010) Татьяна Буланова / Романсы (Pop) [FLAC (image+.cue), lossless]
  • (2011) Lou Reed & Metallica / Lulu (Heavy Metal, Hard Rock) [FLAC (image+.c ...
  • (2010) Punish My Heaven / First Punishment (Melodic Death Metal, Metalcore) ...
  • Информация
    Посетители, находящиеся в группе Гости, не могут оставлять комментарии к данной публикации.