вход на сайт

Имя пользователя :
Пароль :

Восстановление пароля Регистрация
(2012) The Fray / Scars & Stories (Alternative/Rock/Piano Rock) [FLAC (tracks+.cue), lossless]
Рейтинг:
(голосов: 1)



[img]{THEME}/images/logopost.png[/img]





Альбом: Scars & Stories
Тип альбома: Студийный
Год выпуска: 2012
Страна: США
Жанр: Alternative/Rock/Piano Rock
Формат: FLAC (tracks+.cue)
Битрейт: lossless
Log-файл: Присутствует
Продолжительность: 00:45:00


01. Heartbeat (03:40)
02. The Fighter (04:20)
03. Turn Me On (03:02)
04. Run For Your Life (03:58)
05. The Wind (04:14)
06. 1961 (03:54)
07. I Can Barely Say (04:20)
08. Munich (03:57)
09. Here We Are (03:31)
10. 48 To Go (03:22)
11. Rainy Zurich (03:48)
12. Be Still (02:48)


Отчет "XLD" ▼TextX Lossless Decoder version 20120120 (139.0)

XLD extraction logfile from 2012-02-07 01:45:44 +0000

/ Audio CD

Used drive : MATSHITA DVD-R UJ-898 (revision HC10)

Ripper mode : CDParanoia III 10.2
Disable audio cache : OK for the drive with a cache less than 2750KiB
Make use of C2 pointers : NO
Read offset correction : 102
Max retry count : 100
Gap status : Analyzed, Appended

TOC of the extracted CD
Track | Start | Length | Start sector | End sector
---------------------------------------------------------
1 | 00:00:00 | 03:40:52 | 0 | 16551
2 | 03:40:52 | 04:20:08 | 16552 | 36059
3 | 08:00:60 | 03:02:44 | 36060 | 49753
4 | 11:03:29 | 03:58:70 | 49754 | 67673
5 | 15:02:24 | 04:14:38 | 67674 | 86761
6 | 19:16:62 | 03:54:06 | 86762 | 104317
7 | 23:10:68 | 04:20:30 | 104318 | 123847
8 | 27:31:23 | 03:57:20 | 123848 | 141642
9 | 31:28:43 | 03:31:57 | 141643 | 157524
10 | 35:00:25 | 03:22:55 | 157525 | 172729
11 | 38:23:05 | 03:48:34 | 172730 | 189863
12 | 42:11:39 | 02:48:64 | 189864 | 202527

AccurateRip Summary
Disc not found in AccurateRip DB.

All Tracks
Album gain : -9.43 dB
Peak : 0.977112
Statistics
Read error : 0
Skipped (treated as error) : 0
Edge jitter error (maybe fixed) : 1
Atom jitter error (maybe fixed) : 0
Drift error (maybe fixed) : 0
Dropped bytes error (maybe fixed) : 0
Duplicated bytes error (maybe fixed) : 0

Track 01
Filename : /Users/joshangehr/Desktop/01 - Unknown Title.flac
Pre-gap length : 00:02:00

Track gain : -9.38 dB
Peak : 0.977112
CRC32 hash (test run) : D5687D52
CRC32 hash : D5687D52
CRC32 hash (skip zero) : 62175D3B
AccurateRip signature : 9E8F8B6B
->Track not present in AccurateRip database.
Statistics
Read error : 0
Skipped (treated as error) : 0
Edge jitter error (maybe fixed) : 0
Atom jitter error (maybe fixed) : 0
Drift error (maybe fixed) : 0
Dropped bytes error (maybe fixed) : 0
Duplicated bytes error (maybe fixed) : 0
Inconsistency in error sectors : 0

Track 02
Filename : /Users/joshangehr/Desktop/02 - Unknown Title.flac

Track gain : -8.56 dB
Peak : 0.977112
CRC32 hash (test run) : D3C30D57
CRC32 hash : D3C30D57
CRC32 hash (skip zero) : 6B08720F
AccurateRip signature : CCA206A2
->Track not present in AccurateRip database.
Statistics
Read error : 0
Skipped (treated as error) : 0
Edge jitter error (maybe fixed) : 0
Atom jitter error (maybe fixed) : 0
Drift error (maybe fixed) : 0
Dropped bytes error (maybe fixed) : 0
Duplicated bytes error (maybe fixed) : 0
Inconsistency in error sectors : 0

Track 03
Filename : /Users/joshangehr/Desktop/03 - Unknown Title.flac

Track gain : -9.66 dB
Peak : 0.977112
CRC32 hash (test run) : F80E6067
CRC32 hash : F80E6067
CRC32 hash (skip zero) : E3BCB818
AccurateRip signature : 0938FE87
->Track not present in AccurateRip database.
Statistics
Read error : 0
Skipped (treated as error) : 0
Edge jitter error (maybe fixed) : 0
Atom jitter error (maybe fixed) : 0
Drift error (maybe fixed) : 0
Dropped bytes error (maybe fixed) : 0
Duplicated bytes error (maybe fixed) : 0
Inconsistency in error sectors : 0

Track 04
Filename : /Users/joshangehr/Desktop/04 - Unknown Title.flac

Track gain : -9.16 dB
Peak : 0.977112
CRC32 hash (test run) : AD91835E
CRC32 hash : AD91835E
CRC32 hash (skip zero) : ED8E5316
AccurateRip signature : 7BA37C40
->
9b9415c7db56196e8201259732aaaa2434e9c9ad(2012) The Fray / Scars & Stories (Alternative/Rock/Piano Rock) [FLAC (tracks+.cue), lossless] (2012) The Fray / Scars & Stories (Alternative/Rock/Piano Rock) [FLAC (tracks+.cue), lossless] " />

Аплоадер: Админ, дата: 25-03-2012, 00:32, торрент скачан: 359 раз

Понравилась раздача? Посмотрите эти:
  • (2013) Broken Haze / Vital Error (Glitch, Dubstep) [MP3 (tracks), 320 kbps ...
  • (2013) Kanye West | Yeezus (Rap|Experimental Hip-Hop) [FLAC (tracks+.cue), ...
  • (2012) The Lumineers / The Lumineers (Indie-folk, Folk-rock) [FLAC (tracks+ ...
  • (2012) Владимир Кузьмин / Endorfin (Русский Рок) [FLAC (image+.cue), lossle ...
  • (2010) Katie Melua / The House ( jazz-pop, vocal jazz) [FLAC (tracks + .cu ...
  • (2011) Moby / Destroyed (Electronic, Downtempo, Ambient) [FLAC (tracks+.cue ...
  • (2010) Sungha Jung / Perfect Blue (Acoustic, Fingerstyle Guitar) [FLAC (tra ...
  • (2012) Norah Jones / Little Broken Hearts (Vocal Jazz, Alternative Rock) [F ...
  • (2012) Hans Zimmer / The Dark Knight Rises (Film score) [FLAC (tracks+.cu ...
  • (2012) Mouse On Mars / Parastrophics (Leftfield, Abstract, Rhythmic Noise, ...
  • (2012) Linkin Park / LP Underground 12 (Alternative Rock) [FLAC (tracks+.cu ...
  • The KMPlayer 3.4.0.59 Final RePack/Portable by D!akov [Rus/Ukr/Eng]
  • The KMPlayer 3.5.0.77 [ML / Rus]
  • (2010) Enduser / 1-3 (DnB, Dubstep, Breakcore) [FLAC (tracks+.cue), lossles ...
  • (2012) Lana Del Rey / Born To Die (Indie Pop) [FLAC (tracks+.cue), lossless ...
  • The KMPlayer 3.2.0.0 [RUS / ML]
  • The KMPlayer 3.2.0.19 Final + SkinPack [Rus|2012]
  • (2012) Unheilig / Lichter der Stadt (Limited Edition, 2CD) (Industrial, Got ...
  • (2012) Young Guns / Bones (Alternative Rock) [FLAC (tracks +.cue), lossless ...
  • (2012) Switchfoot / Vice Re-Verses (Remixes) (Alternative, Christian Rock, ...
  • (2011) 7eventh Time Down / Alive In You (Alternative Rock/Modern Rock/Chris ...
  • The KMPlayer 3.4 Beta (3.3.0.48) [ML]
  • The KMPlayer 3.4 Beta (3.3.0.49) [ML]
  • The KMPlayer 3.4.0.55 Final [ML]
  • The KMPlayer 3.4.0.59 Final [ML]
  • Информация
    Посетители, находящиеся в группе Гости, не могут оставлять комментарии к данной публикации.