вход на сайт

Имя пользователя :
Пароль :

Восстановление пароля Регистрация
(2011) Downhere / On The Altar Of Love (Alternative Rock/Christian Rock) [FLAC (tracks+.cue), lossless]
Рейтинг:
(голосов: 1)



[img]{THEME}/images/logopost.png[/img]





Альбом: On The Altar Of Love
Тип альбома: Cтудийный
Год выпуска: 2011
Страна: Канада
Жанр: Alternative Rock/Christian Rock
Формат: FLAC (tracks+.cue)
Битрейт: lossless
Log-файл: Присутствует
Продолжительность: 00:47:11


01. Only The Beginning (04:04)
02. Rest (04:09)
03. Let Me Rediscover You (04:00)
04. For Life (03:57)
05. Living The Dream (03:34)
06. Seek (03:47)
07. Glory By The Way Of Shame (03:52)
08. Holy (04:32)
09. For The Heartbreak (03:30)
10. Turn This Around (03:53)
11. The Altar Of Love (03:15)
12. Reveal The Kingdom (04:33)

Отчет "EAC" ▼TextExact Audio Copy V0.99 prebeta 5 from 4. May 2009

EAC extraction logfile from 5. February 2012, 22:00

Downhere / On The Altar Of Love

Used drive : ATAPI iHAS424 Y Adapter: 0 ID: 0

Read mode : Secure
Utilize accurate stream : Yes
Defeat audio cache : Yes
Make use of C2 pointers : No

Read offset correction : 48
Overread into Lead-In and Lead-Out : No
Fill up missing offset samples with silence : Yes
Delete leading and trailing silent blocks : No
Null samples used in CRC calculations : Yes
Used interface : Native Win32 interface for Win NT & 2000
Gap handling : Appended to previous track

Used output format : User Defined Encoder
Selected bitrate : 768 kBit/s
Quality : High
Add ID3 tag : No
Command line compressor : C:Program Files (x86)Exact Audio CopyFLACFLAC.EXE
Additional command line options : -6 -V -T "ARTIST=%a" -T "TITLE=%t" -T "ALBUM=%g" -T "DATE=%y" -T "TRACKNUMBER=%n" -T "GENRE=%m" -T "COMMENT=%e" %s -o %d

TOC of the extracted CD

Track | Start | Length | Start sector | End sector
---------------------------------------------------------
1 | 0:00.00 | 4:04.26 | 0 | 18325
2 | 4:04.26 | 4:09.21 | 18326 | 37021
3 | 8:13.47 | 4:00.19 | 37022 | 55040
4 | 12:13.66 | 3:57.38 | 55041 | 72853
5 | 16:11.29 | 3:34.41 | 72854 | 88944
6 | 19:45.70 | 3:47.33 | 88945 | 106002
7 | 23:33.28 | 3:52.50 | 106003 | 123452
8 | 27:26.03 | 4:32.04 | 123453 | 143856
9 | 31:58.07 | 3:30.20 | 143857 | 159626
10 | 35:28.27 | 3:53.64 | 159627 | 177165
11 | 39:22.16 | 3:15.20 | 177166 |  
cbcedef04d897e36b1a2e14dda14b5dfdb8281b3(2011) Downhere / On The Altar Of Love (Alternative Rock/Christian Rock) [FLAC (tracks+.cue), lossless] (2011) Downhere / On The Altar Of Love (Alternative Rock/Christian Rock) [FLAC (tracks+.cue), lossless] " />

Аплоадер: Админ, дата: 14-03-2012, 15:16, торрент скачан: 359 раз

Понравилась раздача? Посмотрите эти:
  • (2010) Zaz / Zaz (Nu jazz, Chanson, Soul) [FLAC (tracks+.cue), lossless]
  • (Дискография, 1994-2011) Cake (Indie Rock) [FLAC (tracks+.cue), losslesss]
  • (2011) Disturbed / The Lost Children (Alternative Metal) [FLAC (tracks+.cue ...
  • (2011) Daughtry / Break the Spell (Deluxe Edition) (Alt. Rock / Modern Rock ...
  • (2011) Linkin Park / LP Underground 11 (Alternative Rock) [FLAC (Image+cue) ...
  • (2009) Dead By Sunrise / Out Of Ashes (Japanese Edition) (Alternative Rock) ...
  • (2010) Ravenna / Debrief (Alt. Rock / Christian Rock / Indie) [FLAC (tracks ...
  • (2012) Mark Lanegan Band / Blues Funeral (Alternative Rock/Blues Rock) [FLA ...
  • (2012) Son Of A Bad Man / Heres To The Falling In... (Alt.Rock) [FLAC (trac ...
  • (1996) The Rasmus / Peep (Finnish Version) (Alternative Rock) [FLAC (tracks ...
  • (2006) The Rasmus / Shot (Single) (Alternative Rock) [FLAC (tracks+.cue), l ...
  • (2011) Linkin Park / Iridescent (Alternative Rock) [FLAC(image+.cue), lossl ...
  • (2011) Ляпис Трубецкой / Веселые картинки (Rock) [FLAC (tracks+.cue), lossl ...
  • (2011) Scorpions / Comeblack (Hard Rock) [FLAC (tracks+.cue)lossless]
  • (2011) Дельфин / Существо (Alternative|Experimental) [FLAC (tracks+.cue), l ...
  • (2011) Ленинград / Хна (Rock) [FLAC (tracks+.cue), lossless]
  • (2012) Buckethead / Electric Sea (Experimental/Acoustic/Ambient/Rock) [FLAC ...
  • (2012) Les Friction / Les Friction (Alt. Rock/Neo-Classical/Orchestral) [FL ...
  • (2011) SeeS / The enD (Progressive/Math Metal) [FLAC (tracks+.cue), lossles ...
  • (2012) Anneke van Giersbergen / Everything Is Changing (Alternative Rock/Fe ...
  • (2012) Our Lady Peace / Curve (Alternative/Rock) [FLAC (tracks+.cue), lossl ...
  • (2012) Nine Lashes / World We View (Alt.Rock/Alt.Metal/Christian) [FLAC (tr ...
  • (2011) Phinehas / Thegodmachine (Metalcore) [FLAC (tracks+.cue), lossless]
  • (2011) Skindred / Union Black (Alternative Metal, Ragga-Metal) [FLAC (track ...
  • (2012) For Today / Immortal (Metalcore, Hardcore, Christian) [FLAC (tracks+ ...
  • Информация
    Посетители, находящиеся в группе Гости, не могут оставлять комментарии к данной публикации.