вход на сайт

Имя пользователя :
Пароль :

Восстановление пароля Регистрация
(2012) Anneke van Giersbergen / Everything Is Changing (Alternative Rock/Female Vocal) [FLAC (image+.cue), lossless]
Рейтинг:
(голосов: 1)



[img]{THEME}/images/logopost.png[/img]





Альбом: Everything Is Changing
Тип альбома: Cтудийный
Год выпуска: 2012
Страна: Нидерланды
Жанр: Alternative Rock/Female Vocal
Формат: FLAC (image+.cue)
Битрейт: lossless
Log-файл: Присутствует
Продолжительность: 00:45:05


01. Feel Alive(3:38)
02. You Want To Be Free(3:23)
03. Everything Is Changing(3:18)
04. Take Me Home(3:23)
05. I Wake Up(3:30)
06. Circles(4:01)
07. My Boy(4:15)
08. Stay(4:09)
09. Hope, Pray, Dance, Play(3:20)
10. Slow Me Down(2:58)
11. Too Late(4:11)
12. 1000 Miles Away From You(5:00)

Отчет "EAC" ▼TextExact Audio Copy V1.0 beta 2 from 29. April 2011

EAC extraction logfile from 24. February 2012, 17:22

Anneke van Giersbergen / Everything Is Changing

Used drive : HL-DT-STDVD+-RW GS30N Adapter: 0 ID: 1

Read mode : Secure
Utilize accurate stream : Yes
Defeat audio cache : Yes
Make use of C2 pointers : No

Read offset correction : 667
Overread into Lead-In and Lead-Out : No
Fill up missing offset samples with silence : Yes
Delete leading and trailing silent blocks : No
Null samples used in CRC calculations : Yes
Used interface : Native Win32 interface for Win NT & 2000

Used output format : User Defined Encoder
Selected bitrate : 768 kBit/s
Quality : High
Add ID3 tag : No
Command line compressor : C:Program Files (x86)Exact Audio CopyFLACFLAC.EXE
Additional command line options : -6 -V -T "ARTIST=%artist%" -T "TITLE=%title%" -T "ALBUM=%albumtitle%" -T "DATE=%year%" -T "TRACKNUMBER=%tracknr%" -T "GENRE=%genre%" -T "COMMENT=%comment%" -T "BAND=%albuminterpret%" -T "COMPOSER=%composer%" %haslyrics%--ta

TOC of the extracted CD

Track | Start | Length | Start sector | End sector
---------------------------------------------------------
1 | 0:00.00 | 3:37.55 | 0 | 16329
2 | 3:37.55 | 3:23.13 | 16330 | 31567
3 | 7:00.68 | 3:18.02 | 31568 | 46419
4 | 10:18.70 | 3:23.06 | 46420 | 61650
5 | 13:42.01 | 3:29.74 | 61651 | 77399
6 | 17:12.00 | 4:00.62 | 77400 | 95461
7 | 21:12.62 | 4:15.08 | 95462 | 114594
8 | 25:27.70 | 4:08.52 | 114595 | 133246
9 | 29:36.47 | 3:19.51 | 133247 | 148222
10 | 32:56.23 | 2:57.52 | 148223 | 161549
11 | 35:54.00 | 4:11.35 | 161550 | 180409
12 | 40:05.35 |&nbs
e532d6f58aa94315a4dac7554238dc2412c36574(2012) Anneke van Giersbergen / Everything Is Changing (Alternative Rock/Female Vocal) [FLAC (image+.cue), lossless] (2012) Anneke van Giersbergen / Everything Is Changing (Alternative Rock/Female Vocal) [FLAC (image+.cue), lossless] " />

Аплоадер: Админ, дата: 14-03-2012, 15:12, торрент скачан: 359 раз

Понравилась раздача? Посмотрите эти:
  • (2013) Buddy Guy / Rhythm & Blues (2CD) (Blues) [FLAC (image+.cue), Lossles ...
  • (2013) The Hamburg Blues Band / Friends For A LIVEtime (Blues Rock, Rock) [ ...
  • (2013) Leslie West / Still Climbing (Rock, Hard Rock, Blues Rock) [FLAC (im ...
  • (2013) Paul McCartney / New (Deluxe Edition) (Rock) [FLAC (image,+.cue), lo ...
  • (2013) Elton John / The Diving Board (Rock, Pop Rock) [FLAC (image+.cue), L ...
  • (2013) Govt Mule / Shout! (2CD) (Blues Rock) [FLAC (image+.cue), Lossless]
  • (2013) Fall Out Boy / Save Rock and Roll (Pop-Punk) [ALAC (tracks), lossles ...
  • (2010) Zaz / Zaz (Nu jazz, Chanson, Soul) [FLAC (tracks+.cue), lossless]
  • (2011) Disturbed / The Lost Children (Alternative Metal) [FLAC (tracks+.cue ...
  • (2011) Linkin Park / LP Underground 11 (Alternative Rock) [FLAC (Image+cue) ...
  • (2012) Katie Melua / Secret Symphony (Jazz Pop, Vocal Jazz) [FLAC (tracks+. ...
  • (2012) Mark Lanegan Band / Blues Funeral (Alternative Rock/Blues Rock) [FLA ...
  • (2012) Marconi Union / Different Colours (Post Rock, Downtempo, Ambient) [F ...
  • (2012) Tomandandy / Resident Evil: Retribution (Score, Soundtrack)[FLAC (tr ...
  • (1996) The Rasmus / Peep (Finnish Version) (Alternative Rock) [FLAC (tracks ...
  • (2011) Linkin Park / Iridescent (Alternative Rock) [FLAC(image+.cue), lossl ...
  • (2011) Дельфин / Существо (Alternative|Experimental) [FLAC (tracks+.cue), l ...
  • (2012) Buckethead / Electric Sea (Experimental/Acoustic/Ambient/Rock) [FLAC ...
  • (2012) Les Friction / Les Friction (Alt. Rock/Neo-Classical/Orchestral) [FL ...
  • (2011) SeeS / The enD (Progressive/Math Metal) [FLAC (tracks+.cue), lossles ...
  • (2011) Downhere / On The Altar Of Love (Alternative Rock/Christian Rock) [F ...
  • (2012) Our Lady Peace / Curve (Alternative/Rock) [FLAC (tracks+.cue), lossl ...
  • (2012) Nine Lashes / World We View (Alt.Rock/Alt.Metal/Christian) [FLAC (tr ...
  • (2011) Phinehas / Thegodmachine (Metalcore) [FLAC (tracks+.cue), lossless]
  • (2012) For Today / Immortal (Metalcore, Hardcore, Christian) [FLAC (tracks+ ...
  • Информация
    Посетители, находящиеся в группе Гости, не могут оставлять комментарии к данной публикации.