вход на сайт

Имя пользователя :
Пароль :

Восстановление пароля Регистрация
(2011) Breaking Benjamin / Shallow Bay: The Best of Breaking Benjamin (Alternative/Post-Grunge) [FLAC (tracks+.cue), lossless]
Рейтинг:
(голосов: 1)



[img]{THEME}/images/logopost.png[/img]





Альбом: Shallow Bay: The Best of Breaking Benjamin
Тип альбома: Compilation
Год выпуска: 2011
Страна: США
Жанр: Alternative/Post-Grunge
Формат: FLAC (tracks+.cue)
Битрейт: lossless
Log-файл: Присутствует
Продолжительность: 01:29:24


CD1:
01. Polyamorous (02:57)
02. Skin (03:21)
03. Medicate (03:46)
04. So Cold (04:34)
05. Sooner Or Later (03:39)
06. Rain (03:25)
07. The Diary Of Jane (03:21)
08. Breath (03:39)
09. Until The End (04:13)
10. I Will Not Bow (03:37)
11. Lights Out (03:33)
12. Give Me A Sign (04:19)
13. Blow Me Away (Featuring Valora) (03:09)
CD2:
01. Ordinary Man (Japanese B-Side) (03:31)
02. Water (Self-Titled Independent EP) (04:04)
03. Who Wants To Live Forever (Queen Cover, New Mix) (03:13)
04. I Will Not Bow (Acoustic + Strings Mix) (04:07)
05. Better Days (Previously Unreleased) (03:24)
06. Polyamorous (Acoustic, Previously Unreleased) (03:06)
07. Lie To Me (Previously Unreleased) (04:06)
08. Lady Bug (Japanese B-Side) (03:06)
09. Enjoy The Silence (Depeche Mode Cover, Previously Unreleased) (03:28)
10. Until The End (Live Acoustic) (04:42)
11. Breath (Live Acoustic) (04:56)

Отчет "EAC" (CD1) ▼TextExact Audio Copy V1.0 beta 2 from 29. April 2011

EAC extraction logfile from 16. August 2011, 11:08

Breaking Benjamin / Shallow Bay: The Best Of Breaking Benjamin

Used drive : ATAPI iHAS424 Y Adapter: 1 ID: 0

Read mode : Secure
Utilize accurate stream : Yes
Defeat audio cache : Yes
Make use of C2 pointers : No

Read offset correction : 48
Overread into Lead-In and Lead-Out : No
Fill up missing offset samples with silence : Yes
Delete leading and trailing silent blocks : No
Null samples used in CRC calculations : Yes
Used interface : Native Win32 interface for Win NT & 2000
Gap handling : Appended to previous track

Used output format : User Defined Encoder
Selected bitrate : 1024 kBit/s
Quality : High
Add ID3 tag : No
Command line compressor : C:Program FilesExact Audio CopyFlacflac.exe
Additional command line options : -T "Artist=%artist%" -T "Title=%title%" -T "Album=%albumtitle%" -T "Date=%year%" -T "Tracknumber=%Tracknr%" -T "Genre=%genre%" -T "Label =Hollywood Records" -T "Catalog =D001408202" -V -8 %source%

TOC of the extracted CD

Track | Start | Length | Start sector | End sector
---------------------------------------------------------
1 | 0:00.00 | 2:57.54 | 0 | 13328
2 | 2:57.54 | 3:21.16 | 13329 | 28419
3 | 6:18.70 | 3:46.01 | 28420 | 45370
4 | 10:04.71 | 4:34.03 | 45371 | 65923
5 | 14:38.74 | 3:39.28 | 65924 | 82376
&
55116b164681cecb8fe911622cab1e8f2076284b(2011) Breaking Benjamin / Shallow Bay: The Best of Breaking Benjamin (Alternative/Post-Grunge) [FLAC (tracks+.cue), lossless] (2011) Breaking Benjamin / Shallow Bay: The Best of Breaking Benjamin (Alternative/Post-Grunge) [FLAC (tracks+.cue), lossless] " />

Аплоадер: Админ, дата: 26-02-2012, 13:55, торрент скачан: 359 раз

Понравилась раздача? Посмотрите эти:
  • (2011) Disturbed / The Lost Children (Alternative Metal) [FLAC (tracks+.cue ...
  • (2011) Linkin Park / LP Underground 11 (Alternative Rock) [FLAC (Image+cue) ...
  • (2009) Dead By Sunrise / Out Of Ashes (Japanese Edition) (Alternative Rock) ...
  • (2011) B.B. King / Icon (Blues) [FLAC (tracks+.cue), lossless]
  • (2012) Mark Lanegan Band / Blues Funeral (Alternative Rock/Blues Rock) [FLA ...
  • (2012) Marconi Union / Different Colours (Post Rock, Downtempo, Ambient) [F ...
  • (1996) The Rasmus / Peep (Finnish Version) (Alternative Rock) [FLAC (tracks ...
  • (2006) The Rasmus / Shot (Single) (Alternative Rock) [FLAC (tracks+.cue), l ...
  • (2011) Scorpions / Comeblack (Hard Rock) [FLAC (tracks+.cue)lossless]
  • (2011) Дельфин / Существо (Alternative|Experimental) [FLAC (tracks+.cue), l ...
  • (2011) Ленинград / Хна (Rock) [FLAC (tracks+.cue), lossless]
  • (2012) Buckethead / Electric Sea (Experimental/Acoustic/Ambient/Rock) [FLAC ...
  • (2012) Les Friction / Les Friction (Alt. Rock/Neo-Classical/Orchestral) [FL ...
  • (2011) SeeS / The enD (Progressive/Math Metal) [FLAC (tracks+.cue), lossles ...
  • (2011) Downhere / On The Altar Of Love (Alternative Rock/Christian Rock) [F ...
  • (2012) Our Lady Peace / Curve (Alternative/Rock) [FLAC (tracks+.cue), lossl ...
  • (2011) Terra Tenebrosa / The Tunnels (Atmospheric Sludge Post-Metal/Psyched ...
  • (2011) Phinehas / Thegodmachine (Metalcore) [FLAC (tracks+.cue), lossless]
  • (2011) Skindred / Union Black (Alternative Metal, Ragga-Metal) [FLAC (track ...
  • (Дискография 2001-2011) Breaking Benjamin (Alternative Metal, Post-Grunge) ...
  • Информация
    Посетители, находящиеся в группе Гости, не могут оставлять комментарии к данной публикации.