вход на сайт

Имя пользователя :
Пароль :

Восстановление пароля Регистрация
(2011) This Will Destroy You / Tunnel Blanket (Post Rock) [FLAC (tracks+.cue), lossless]
Рейтинг:
(голосов: 1)



[img]{THEME}/images/logopost.png[/img]





Альбом: Tunnel Blanket
Тип альбома: Студийный
Год выпуска: 2011
Страна: США
Жанр: Post Rock
Формат: FLAC (tracks+.cue)
Битрейт: lossless
Log-файл: Присутствует
Продолжительность: 01:00:45



01.Little Smoke[12:05]
02.Glass Realms[06:52]
03.Communal Blood[08:13]
04.Reprise[08:18]
05.Killed The Lord, Left For The New World[06:33]
06.Osario[02:40]
07.Black Dunes[08:16]
08.Powdered Hand[07:45]


Отчет "EAC" ▼TextExact Audio Copy V1.0 beta 1 from 15. November 2010
EAC extraction logfile from 30. April 2011, 12:23
This Will Destroy You / Tunnel Blanket
Used drive : PLEXTOR CD-R PREMIUM Adapter: 5 ID: 1
Read mode : Secure
Utilize accurate stream : Yes
Defeat audio cache : Yes
Make use of C2 pointers : No
Read offset correction : 30
Overread into Lead-In and Lead-Out : Yes
Fill up missing offset samples with silence : Yes
Delete leading and trailing silent blocks : No
Null samples used in CRC calculations : Yes
Used interface : Native Win32 interface for Win NT & 2000
Gap handling : Appended to previous track
Used output format : User Defined Encoder
Selected bitrate : 128 kBit/s
Quality : High
Add ID3 tag : No
Command line compressor : C:Program FilesFLACflac.exe
Additional command line options : -V -8 -T "artist=%a" -T "title=%t" -T "album=%g" -T "date=%y" -T "tracknumber=%n" -T "genre=%m" %s
TOC of the extracted CD
Track | Start | Length | Start sector | End sector
---------------------------------------------------------
1 | 0:00.00 | 12:05.42 | 0 | 54416
2 | 12:05.42 | 6:52.23 | 54417 | 85339
3 | 18:57.65 | 8:13.41 | 85340 | 122355
4 | 27:11.31 | 8:18.28 | 122356 | 159733
5 | 35:29.59 | 6:33.69 | 159734 | 189277
6 | 42:03.53 | 2:40.30 | 189278 | 201307
7 | 44:44.08 | 8:16.39 | 201308 | 238546
8 | 53:00.47 | 7:45.01 | 238547 | 273422
Track 1
Filename F:11210This Will Destroy You - 2011 - Tunnel Blanket [FLAC]1 - Little Smoke.wav
Pre-gap length 0:00:02.00
Peak level 99.1 %
Extraction speed 5.5 X
Track quality 99.9 %
Test CRC F2DD54F0
Copy CRC F2DD54F0
Track not present in AccurateRip database
Copy OK
Track 2
Filename F:11210This Will Destroy You - 2011 - Tunnel Blanket [FLAC]2 - Glass Realms.wav
Peak level 98.8 %
Extraction speed 6.9 X
Track quality 100.0 %
Test CRC 332ED430
Copy CRC 332ED430
Track not present in AccurateRip database
Copy OK
Track 3
Filename F:11210This Will Destroy You - 2011 - Tunnel Blanket [FLAC]3 - Communal Blood.wav
Peak level 99.1 %
Extraction speed 7.9 X
Track quality 100.0 %
Test CRC 3D873609
Copy CRC 3D873609
Track not present in AccurateRip database
Copy OK
Track 4
Filename F:11210This Will Destroy You - 2011 - Tunnel Blanket [FLAC]4 - Reprise.wav
Peak level 97.2 %
Extraction speed 8.6 X
Track quality 100.0 %
Test CRC 304364DA
Copy CRC 304364DA
Track not present in AccurateRip database
Copy OK
Track 5
Filename F:11210This Will Destroy You - 2011 - Tunnel Blanket [FLAC]5 - Killed The Lord, Left For The New World.wav
Peak level 98.7 %
Extraction speed 9.1 X
Track quality 100.0 %
Test CRC D6159EB5
Copy CRC D6159EB5
Track not present in AccurateRip database
Copy OK
Track 6
Filename F:11210This Will Destroy You - 2011 - Tunnel Blanket [FLAC]6 - Osario.wav
Peak level 97.3 %
Extraction speed 6.0 X
Track quality 99.9 %
Test CRC 48177FBF
Copy CRC 48177FBF
Track not present in AccurateRip database
Copy OK
Track 7
Filename F:11210This Will Destroy You - 2011 - Tunnel Blanket [FLAC]7 - Black Dunes.wav
Peak level 98.8 %
Extraction speed 9.9 X
Track quality 100.0 %
Test CRC A7CDA81D
Copy CRC A7CDA81D
Track not present in AccurateRip database
Copy OK
Track 8
Filename F:11210This Will Destroy You - 2011 - Tunnel Blanket [FLAC]8 - Powdered Hand.wav
Peak level 96.9 %
Extraction speed 11.2 X
Track quality 100.0 %
Test CRC A6D4ED5F
Copy CRC A6D4ED5F
Track not present in AccurateRip database
Copy OK
None of the tracks are present in the AccurateRip database
No errors occurred
End of status report
==== Log checksum D7CC8DA
e9de1cd4d00733f9d6900293982afec3b68e91e5(2011) This Will Destroy You / Tunnel Blanket (Post Rock) [FLAC (tracks+.cue), lossless] (2011) This Will Destroy You / Tunnel Blanket (Post Rock) [FLAC (tracks+.cue), lossless] " />

Аплоадер: Админ, дата: 22-12-2011, 23:21, торрент скачан: 359 раз

Понравилась раздача? Посмотрите эти:
  • (2013) Girls Generation (SNSD) - Galaxy Supernova / Galaxy Supernova (KPop) ...
  • (2013) Linkin Park & Steve Aoki / A Light That Never Comes (Electronic Rock ...
  • (2013) Linkin Park / Castle Of Glass (Alternative) [FLAC (image+.cue), Loss ...
  • (2009) The Black Eyed Peas / The E.N.D. (The Energy Never Dies) (Target Del ...
  • (2011) Depeche Mode / Personal Jesus 2011 Club Promo (Electronic, Synthpop) ...
  • (2008) Karunesh /Enlightenment (New Age) [FLAC (image+.cue), lossless]
  • (2011) Orjan Nilsen / In My Opinion (Trance) [FLAC (tracks+.cue), lossless] ...
  • (2002) PPK (ППК) / ReLoad. Russian Trance (Trance) [FLAC (tracks+cue), loss ...
  • (2010, сборник) VA / CDeelder Box (Swing) [FLAC (tracks+.cue), lossless]
  • (2010) Ravenna / Debrief (Alt. Rock / Christian Rock / Indie) [FLAC (tracks ...
  • (2001-2003, сборник) VA / Acoustic Café (4xCD) (Classical, New Age) [FLAC ( ...
  • (2012) High Contrast / The Agony & The Ecstasy (Drum and Bass) [FLAC (track ...
  • (2006) The Rasmus / Shot (Single) (Alternative Rock) [FLAC (tracks+.cue), l ...
  • (2012) Madonna / Superstar (Pop) [FLAC (image+.cue), lossless]
  • (2008) Miley Cyrus - Breakout (Platinum Edition) (Pop) [FLAC (tracks+.cue), ...
  • (2009) Miley Cyrus / The Time of Our Lives (Pop) [FLAC (tracks+.cue), lossl ...
  • (2011) Linkin Park / Iridescent (Alternative Rock) [FLAC(image+.cue), lossl ...
  • (2011) Stargazery / Eye On The Sky (Heavy Metal) [FLAC (image+.cue), lossle ...
  • (2011) Rammstein / Mein Land (Neue Deutsche Harte, Industrial, Tanz-Metal) ...
  • (Дискография, 2010-2011) Chelsea Grin (Deathcore) [FLAC (tracks+.cue), loss ...
  • (2011) Metallica / Beyond Magnetic (Thrash Metal) [FLAC (image+.cue), lossl ...
  • (2011) Florence & The Machine / Ceremonials (Deluxe Edition) (Indie/Alterna ...
  • (2012) KoRn feat. Skrillex / Chaos Lives In Everything (UK Promo) (Nu-metal ...
  • (2011) Lou Reed & Metallica / Lulu (Heavy Metal, Hard Rock) [FLAC (image+.c ...
  • (2011) Ink Stained Promises / Relations. (Metalcore, Hardcore) [FLAC (track ...
  • Информация
    Посетители, находящиеся в группе Гости, не могут оставлять комментарии к данной публикации.