вход на сайт

Имя пользователя :
Пароль :

Восстановление пароля Регистрация
(2011) Scorpions / Comeblack (Hard Rock) [FLAC (tracks+.cue)lossless]
Рейтинг:
(голосов: 1)



[img]{THEME}/images/logopost.png[/img]





Альбом: Comeblack
Тип альбома: Compilation
Год выпуска: 2011
Страна: Germany
Жанр: Hard Rock
Формат: FLAC (tracks+.cue)
Битрейт: lossless
Лог-файл: Присутствует
Продолжительность: 00:54:05


01. Rhythm Of Love [Re-Recording] (03:39)
02. No One Like You [Re-Recording] (04:06)
03. The Zoo [Re-Recording] (05:38)
04. Rock You Like A Hurricane [Re-Recording] (04:15)
05. Blackout [Re-Recording] (03:48)
06. Wind Of Change [Re-Recording] (05:08)
07. Still Loving You [Re-Recording] (06:43)
08. Tainted Love (Gloria Jones Cover) (03:27)
09. Children Of The Revolution (T. Rex Cover) (03:33)
10. Across The Universe (The Beatles Cover) (03:17)
11. Tin Soldier (Small Faces Cover) (03:14)
12. All Day And All Of The Night (The Kinks Cover) (03:15)
13. Ruby Tuesday (The Rolling Stones Cover) (03:55)

EAC ▼TextExact Audio Copy V1.0 beta 3 from 29. August 2011

EAC extraction logfile from 6. November 2011, 14:26

Scorpions / Comeblack

Used drive : _NEC DVD_RW ND-3520A Adapter: 0 ID: 0

Read mode : Secure
Utilize accurate stream : Yes
Defeat audio cache : Yes
Make use of C2 pointers : No

Read offset correction : 48
Overread into Lead-In and Lead-Out : No
Fill up missing offset samples with silence : Yes
Delete leading and trailing silent blocks : No
Null samples used in CRC calculations : Yes
Used interface : Native Win32 interface for Win NT & 2000
Gap handling : Appended to previous track

Used output format : User Defined Encoder
Selected bitrate : 1024 kBit/s
Quality : High
Add ID3 tag : No
Command line compressor : C:Program FilesExact Audio CopyFlacflac.exe
Additional command line options : -8 -V -T "TITLE=%title%" -T "ARTIST=%artist%" -T "ALBUMARTIST=%albumartist%" -T "ALBUM=%albumtitle%" -T "DATE=%year%" -T "TRACKNUMBER=%tracknr%" -T "TRACKTOTAL=%numtracks%" -T "GENRE=%genre%" -T "COMMENT=%comment%" -T "PERFORMER=%albuminterpret%" -T "COMPOSER=%composer%" %source% -o %dest%


TOC of the extracted CD

Track | Start | Length | Start sector | End sector
---------------------------------------------------------
1 | 0:00.00 | 3:39.35 | 0 | 16459
2 | 3:39.35 | 4:07.47 | 16460 | 35031
3 | 7:47.07 | 5:38.54 | 35032 | 60435
4 | 13:25.61 | 4:16.71 | 60436 | 79706
5 | 17:42.57 | 3:51.17 | 79707 | 97048
6 | 21:33.74 | 5:10.03 | 97049 | 120301
7 | 26:44.02 | 6:44.59 |
82ccf0be08bb3839974224ceac20fa70aa02645a(2011) Scorpions / Comeblack (Hard Rock) [FLAC (tracks+.cue)lossless] (2011) Scorpions / Comeblack (Hard Rock) [FLAC (tracks+.cue)lossless] " />

Аплоадер: Админ, дата: 14-11-2011, 08:40, торрент скачан: 359 раз

Понравилась раздача? Посмотрите эти:
  • (2013) Leslie West / Still Climbing (Rock, Hard Rock, Blues Rock) [FLAC (im ...
  • (2013) Paul McCartney / New (Deluxe Edition) (Rock) [FLAC (image,+.cue), lo ...
  • (2013) Fall Out Boy / Save Rock and Roll (Pop-Punk) [ALAC (tracks), lossles ...
  • (2013) Black Veil Brides / Wretched And Divine: The Story Of The Wild Ones ...
  • (2011) Disturbed / The Lost Children (Alternative Metal) [FLAC (tracks+.cue ...
  • (2011) Daughtry / Break the Spell (Deluxe Edition) (Alt. Rock / Modern Rock ...
  • (2007, 5 CDs Box set) VA / 100 Hits - Rock (Hard Rock, Classic Rock) [FLAC ...
  • (2012) Katie Melua / Secret Symphony (Jazz Pop, Vocal Jazz) [FLAC (tracks+. ...
  • (2012) Mark Lanegan Band / Blues Funeral (Alternative Rock/Blues Rock) [FLA ...
  • (2012) Marconi Union / Different Colours (Post Rock, Downtempo, Ambient) [F ...
  • (2012) Tomandandy / Resident Evil: Retribution (Score, Soundtrack)[FLAC (tr ...
  • (1996) The Rasmus / Peep (Finnish Version) (Alternative Rock) [FLAC (tracks ...
  • (2011) Mistabishi / Trip (Drum & Bass, Breakbeat) [FLAC (tracks+.cue), loss ...
  • (2011) Scorpions / Comeblack (Hard Rock) [MP3, 320/CBR]
  • (2011) Дельфин / Существо (Alternative|Experimental) [FLAC (tracks+.cue), l ...
  • (2011) Ленинград / Хна (Rock) [FLAC (tracks+.cue), lossless]
  • (2012) Buckethead / Electric Sea (Experimental/Acoustic/Ambient/Rock) [FLAC ...
  • (2012) Les Friction / Les Friction (Alt. Rock/Neo-Classical/Orchestral) [FL ...
  • (2011) SeeS / The enD (Progressive/Math Metal) [FLAC (tracks+.cue), lossles ...
  • (2012) Bleeding Through / The Great Fire (Symphonic Metalcore/Hardcore) [FL ...
  • (2012) Our Lady Peace / Curve (Alternative/Rock) [FLAC (tracks+.cue), lossl ...
  • (2011) Terra Tenebrosa / The Tunnels (Atmospheric Sludge Post-Metal/Psyched ...
  • (2012) Nine Lashes / World We View (Alt.Rock/Alt.Metal/Christian) [FLAC (tr ...
  • (2011) Phinehas / Thegodmachine (Metalcore) [FLAC (tracks+.cue), lossless]
  • (2012) For Today / Immortal (Metalcore, Hardcore, Christian) [FLAC (tracks+ ...
  • Информация
    Посетители, находящиеся в группе Гости, не могут оставлять комментарии к данной публикации.