вход на сайт

Имя пользователя :
Пароль :

Восстановление пароля Регистрация
(2011) Linkin Park / Iridescent (Alternative Rock) [FLAC(image+.cue), lossless]
Рейтинг:
(голосов: 1)



[img]{THEME}/images/logopost.png[/img]



Исполнитель: Linkin Park
Альбом: Iridescent
Тип альбома: Single
Год выпуска: 2011
Жанр: Alternative Rock
Формат: FLAC(image+.cue)
Битрейт: lossless
Log-файл: Exact Audio Copy
Продолжительность: 00:11:56

Tреклист:
01. Iridescent (04:01)
02. New Divide (04:30)
03. What Ive Done (03:25)

Отчет EAC ▼TextExact Audio Copy V0.99 prebeta 5 from 4. May 2009
EAC extraction logfile from 8. July 2011, 19:14
Linkin Park / Iridescent
Used drive : SlimtypeBD E DS4E1S Adapter: 0 ID: 1
Read mode : Secure
Utilize accurate stream : Yes
Defeat audio cache : Yes
Make use of C2 pointers : No
Read offset correction : 6
Overread into Lead-In and Lead-Out : No
Fill up missing offset samples with silence : Yes
Delete leading and trailing silent blocks : No
Null samples used in CRC calculations : Yes
Used interface : Native Win32 interface for Win NT & 2000
Gap handling : Appended to previous track
Used output format : User Defined Encoder
Selected bitrate : 768 kBit/s
Quality : High
Add ID3 tag : No
Command line compressor : C:Program Files (x86)Exact Audio CopyFlacflac.exe
Additional command line options : -8 -V -T "ARTIST=%a" -T "TITLE=%t" -T "ALBUM=%g" -T "DATE=%y" -T "TRACKNUMBER=%n" -T "GENRE=%m" -T "COMMENT=EAC FLAC -8" %s
TOC of the extracted CD
Track | Start | Length | Start sector | End sector
---------------------------------------------------------
1 | 0:00.00 | 4:01.52 | 0 | 18126
2 | 4:01.52 | 4:30.46 | 18127 | 38422
3 | 8:32.23 | 3:25.47 | 38423 | 53844
Track 1
Filename F:Linkin Park - Iridescent [2011]1. Iridescent.wav
Pre-gap length 0:00:02.00
Peak level 99.8 %
Track quality 100.0 %
Test CRC 1F621B7F
Copy CRC 1F621B7F
Track not present in AccurateRip database
Copy OK
Track 2
Filename F:Linkin Park - Iridescent [2011]2. New Divide.wav
Pre-gap length 0:00:01.74
Peak level 100.0 %
Track quality 99.9 %
Test CRC 574E2867
Copy CRC 574E2867
Track not present in AccurateRip database
Copy OK
Track 3
Filename F:Linkin Park - Iridescent [2011]3. What Ive Done.wav
Pre-gap length 0:00:01.74
Peak level 100.0 %
Track quality 100.0 %
Test CRC A5520684
Copy CRC A5520684
Track not present in AccurateRip database
Copy OK
None of the tracks are present in the AccurateRip database
No errors occurred
End of status report
Отчет Audiochecker ▼
TextAUDIOCHEC
18f623aa2db4408af8336975566a379140b6d330(2011) Linkin Park / Iridescent (Alternative Rock) [FLAC(image+.cue), lossless] (2011) Linkin Park / Iridescent (Alternative Rock) [FLAC(image+.cue), lossless] " />

Аплоадер: Админ, дата: 19-07-2011, 21:06, торрент скачан: 359 раз

Понравилась раздача? Посмотрите эти:
  • (2013) Girls Generation (SNSD) - Galaxy Supernova / Galaxy Supernova (KPop) ...
  • (2013) Linkin Park & Steve Aoki / A Light That Never Comes (Electronic Rock ...
  • (2013) Linkin Park / Castle Of Glass (Alternative) [FLAC (image+.cue), Loss ...
  • (2009) The Black Eyed Peas / The E.N.D. (The Energy Never Dies) (Target Del ...
  • (2011) Depeche Mode / Personal Jesus 2011 Club Promo (Electronic, Synthpop) ...
  • (2008) Karunesh /Enlightenment (New Age) [FLAC (image+.cue), lossless]
  • (2011) Orjan Nilsen / In My Opinion (Trance) [FLAC (tracks+.cue), lossless] ...
  • (2002) PPK (ППК) / ReLoad. Russian Trance (Trance) [FLAC (tracks+cue), loss ...
  • (2011) Linkin Park / LP Underground 11 (Alternative Rock) [FLAC (Image+cue) ...
  • (2010, сборник) VA / CDeelder Box (Swing) [FLAC (tracks+.cue), lossless]
  • (2010) Ravenna / Debrief (Alt. Rock / Christian Rock / Indie) [FLAC (tracks ...
  • (2012) Linkin Park / Burn It Down (Alternative Rock) (Single) [FLAC (image+ ...
  • (2012) High Contrast / The Agony & The Ecstasy (Drum and Bass) [FLAC (track ...
  • (2006) The Rasmus / Shot (Single) (Alternative Rock) [FLAC (tracks+.cue), l ...
  • (2012) Madonna / Superstar (Pop) [FLAC (image+.cue), lossless]
  • (2009) Miley Cyrus / The Time of Our Lives (Pop) [FLAC (tracks+.cue), lossl ...
  • (2010) [AMATORY] / Инстинкт обречённых (Nu Metal) [FLAC (tracks), lossless] ...
  • (2011) VA / Танцевальный Рай 27 (Pop) [FLAC (image+.cue), lossless]
  • (2011) Stargazery / Eye On The Sky (Heavy Metal) [FLAC (image+.cue), lossle ...
  • (2011) Rammstein / Mein Land (Neue Deutsche Harte, Industrial, Tanz-Metal) ...
  • (Дискография, 2010-2011) Chelsea Grin (Deathcore) [FLAC (tracks+.cue), loss ...
  • (2011) This Will Destroy You / Tunnel Blanket (Post Rock) [FLAC (tracks+.cu ...
  • (2004) Дельфин / Запись концерта 19.11.04 (Alternative|Experimental) [FLAC ...
  • (2011) Florence & The Machine / Ceremonials (Deluxe Edition) (Indie/Alterna ...
  • (2011) Ink Stained Promises / Relations. (Metalcore, Hardcore) [FLAC (track ...
  • Информация
    Посетители, находящиеся в группе Гости, не могут оставлять комментарии к данной публикации.