вход на сайт

Имя пользователя :
Пароль :

Восстановление пароля Регистрация
(2013) Mike Tramp / Cobblestone Street (Classic Rock) [FLAC (image+.cue), lossless]
Рейтинг:
(голосов: 1)



[img]{THEME}/images/logopost.png[/img]



Исполнитель: Mike Tramp
Альбом: Cobblestone Street
Тип альбом: CD , Album
Год выпуска: 2013
Жанр: Classic Rock
Страна (Издатель, Каталожный номер): USA
Аудиокодек: FLAC (*.flac)
Тип рипа: image+.cue
Битрейт: lossless
Лог файлы: присутствуют
Наличие сканов в содержимом раздачи: Есть
Продолжительность: 00:47:30

Tреклист:
01. Cobblestone Street (04:25)
02. Caught In The Storm (04:18)
03. New Day (03:32)
04. Aint The Life I Asked For (04:37)
05. Revolution (03:52)
06. Well Be Alright (03:58)
07. Angel or Devil (04:49)
08. Find It In Your Heart (03:39)
09. What Are You Gonna Do (05:07)
10. Once (04:03)
11. When The Children Cry (Acoustic) (04:53)

Лог создания рипа ▼Exact Audio Copy V1.0 beta 3 from 29. August 2011
Отчёт EAC об извлечении, выполненном 18. мая 2013, 21:08
Mike Tramp / Cobblestone Street
Дисковод: Optiarc DVD RW AD-7280S Adapter: 0ID: 1
Режим чтения : Достоверность
Использование точного потока : Да
Отключение кэша аудио: Да
Использование указателей C2: Нет
Коррекция смещения при чтении : 48
Способность читать области Lead-in и Lead-out : Нет
Заполнение пропущенных сэмплов тишиной: Да
Удаление блоков с тишиной в начале и конце: Нет
При вычислениях CRC использовались нулевые сэмплы : Да
Интерфейс : Встроенный Win32-интерфейс для Win NT/2000
Выходной формат: Пользовательский кодировщик
Выбранный битрейт: 1024 kBit/s
Качество : Высокий
Добавление ID3-тега: Нет
Утилита сжатия : C:Program FilesExact Audio CopyFLACFLAC.EXE
Дополнительные параметры : -8 -V -T "ARTIST=%artist%" -T "TITLE=%title%" -T "ALBUM=%albumtitle%" -T "DATE=%year%" -T "TRACKNUMBER=%tracknr%" -T "GENRE=%genre%" -T "COMMENT=%comment%" -T "BAND=%albuminterpret%" -T "ALBUMARTIST=%albuminterpret%" -T "COMPOSER=%composer%" %haslyrics%--tag-from-file=LYRICS="%lyricsfile%"%haslyrics% -T "DISCNUMBER=%cdnumber%" -T "TOTALDISCS=%totalcds%" -T "TOTALTRACKS=%numtracks%" %hascover%--picture="%coverfile%"%hascover% %source% -o %dest%
TOC извлечённого CD
Трек | Старт| Длительность | Начальный сектор | Конечный сектор
---------------------------------------------------------------------
1|0:00.00 |4:25.30 | 0|19904
2|4:25.30 |4:19.19 | 19905|39348
3|8:44.49 |3:32.05 | 39349|55253
4| 12:16.54 |4:40.18 |&n
964b8272242d9bae852b99da6421717846f1dedf(2013) Mike Tramp / Cobblestone Street (Classic Rock) [FLAC (image+.cue), lossless] (2013) Mike Tramp / Cobblestone Street (Classic Rock) [FLAC (image+.cue), lossless] " />

Аплоадер: Админ, дата: 19-05-2013, 18:49, торрент скачан: 359 раз

Понравилась раздача? Посмотрите эти:
  • (1993) Coverdale & Page / Coverdale & Page (EMI Holland)(Hard Rock) [FLAC ( ...
  • (2013) Al Di Meola / All Your Life (Fusion) [FLAC (image+.cue), lossless]
  • (2012) Sting / Fifteen Healing Bites (Pop Rock)(Chinese Dragon) [FLAC (trac ...
  • (2013) Linkin Park / Underground XIII (Alternative Rock) [FLAC (tracks+.cue ...
  • (2013) Маклай и Ганза / Статус-Кво (Rap, Hip-Hop) [FLAC (Tracks+.Cue), Loss ...
  • (2013) Баста / Баста 4 (Rap, Hip-Hop) [FLAC (Tracks+.Cue), Lossless]
  • (2013) Loc-Dog & Tony VA / Все знают всё (Rap, Hip-Hop) [FLAC (Tracks+.Cue ...
  • (2013) Pinnick Gales Pridgen / Pinnick Gales Pridgen (Hard Rock, Heavy Blue ...
  • (2013) Krokus / Dirty Dynamite (Hard Rock) [FLAC (image+.cue), lossless]
  • (2012) Рем Дигга / Черника (Rap) [FLAC (tracks+.cue), lossless]
  • (2006) Tokio / puls 200 (Alternative Rock / Pop Rock) [FLAC (image+.cue) lo ...
  • (2004) Genesis / Platinum Collection (Art Rock) [FLAC (image+.cue), lossles ...
  • (2012) The Blues Overdrive / The Blues Overdrive (Blues-Rock) [FLAC (image+ ...
  • (2005) Анна Герман / Наши любимые песни (Pop, Retro) [FLAC(image+.cue), los ...
  • (2012) Алексей Брянцев / Твое дыхание (Шансон) [FLAC (image+.cue), lossless ...
  • (2012) Адвайта / Не спать (Rap) [FLAC (tracks+.cue), lossless]
  • (2012) Триада / Мои глаза открыты (Rap) [FLAC (tracks+.cue), lossless]
  • (2012) KREC / Молча проще (Rap) [FLAC (tracks+.cue), lossless]
  • (2012) Ария / Live In Studio (Heavy Metal) [FLAC (image+.сue), lossless]
  • (2012) Елена Ваенга / Лена (Шансон) [FLAC (image+.cue), lossless]
  • Информация
    Посетители, находящиеся в группе Гости, не могут оставлять комментарии к данной публикации.