вход на сайт

Имя пользователя :
Пароль :

Восстановление пароля Регистрация
А что насчет тебя? / How About You (Энтони Бирн, Драма, комедия, 2007) [DVDRip, Профессиональный (многоголосый, закадровый)]
Рейтинг:
(голосов: 1)



[img]{THEME}/images/logopost.png[/img]



А что насчет тебя? / How About You

несколько дней Рождества

Год выпуска: 2007
Страна: Ирландия
Производство: Beyond Films - Ferndale Films - Head Gear Films
Жанр: Драма, комедия

Режиссёр: Энтони Бирн
В ролях: Джосс Экленд, Хейли Этвелл, Орла Брэйди и другие

Перевод: Профессиональный (многоголосый, закадровый)
Субтитры:Отсутствует

Описание
Управляющая пансионатом для престарелых просит свою младшую сестру подменить её на несколько дней Рождества, это не должно быть трудной задачей — в пансионате остались лишь четверо постояльцев. Но если бы они только знали, что из этого выйдет. Ведь эти четверо способны на такое…

Доп. информация
Премьеры ▼премьера (мир) 4 октября 2007

Mediainfo ▼TextОбщее
Полное имя : D:How.About.You.2007.DVDRip.rus.KiNOFACK.avi
Формат : AVI
Формат/Информация : Audio Video Interleave
Размер файла : 699 Мбайт
Продолжительность : 1 ч. 30 м.
Режим общего битрейта : Переменный
Общий поток : 1077 Кбит/сек
Режиссёр : KiNOFACK
Программа кодирования : VirtualDubMod 1.5.10.2 (build 2540/release)
Библиотека кодирования : VirtualDubMod build 2540/release

Видео
Идентификатор : 0
Формат : MPEG-4 Visual
Профиль формата : Advanced [email protected]
Параметр BVOP формата : 2
Параметр QPel формата : Нет
Параметр GMC формата : Без точки перехода
Параметр матрицы формата : Default (H.263)
Идентификатор кодека : XVID
Идентификатор кодека/Подсказка : XviD
Продолжительность : 1 ч. 30 м.
Битрейт : 931 Кбит/сек
Ширина : 640 пикселей
Высота : 352 пикселя
Соотношение сторон : 16:9
Частота кадров : 23,976 кадра/сек
Цветовое пространство : YUV
Субдискретизация насыщенности : 4:2:0
Битовая глубина : 8 бит
Тип развёртки : Прогрессивная
Метод сжатия : С потерями
Бит/(Пиксели*Кадры) : 0.172
Размер потока : 604 Мбайт (86%)
Библиотека кодирования : XviD 0039 build=2005.09.16 (UTC 2005-09-16)

Аудио
Идентификатор : 1
Формат : MPEG Audio
Версия формата : Version 1
Профиль формата : Layer 3
Режим : Joint stereo
Расширение режима : MS Stereo
Идентификатор кодека : 55
Идентификатор кодека/Подсказка : MP3
Продолжительность : 1 ч. 30 м.
Вид битрейта : Переменный
Битрейт : 133 Кбит/сек
Каналы : 2 канала
Частота : 48,0 КГц
Метод сжатия : С потерями
Размер потока : 86,6 Мбайт (12%)
Выравнивание : Соединение по промежуткам
Продолжительность промежутка : 24 мс. (0,58 видеокадр)
Время предзагрузки промежутка : 143 мс.

[/ code]

Тех. данные
Качество: DVDRip
Продолжительность: 01:30:41 час.

Формат: AVI
Видео кодек: XviD
Аудио кодек: MP3
Видео: 640x352 (1.82:1), 23.976 fps, XviD 1.1 beta 2 (build 39) 930 kbps avg, 0.17 bit/pixel
Аудио: 48 kHz, MPEG Layer 3, 2 ch, 133.46 kbps avg


|Cтол заказов| Наши раздачи| Набор в группу| Сказать спасибо|


af1bd858b606eb6ab52ab360dce3829deff0364eА что насчет тебя? / How About You (Энтони Бирн, Драма, комедия, 2007) [DVDRip, Профессиональный (многоголосый, закадровый)] А что насчет тебя? / How About You (Энтони Бирн, Драма, комедия, 2007) [DVDRip, Профессиональный (многоголосый, закадровый)] " />

Аплоадер: Админ, дата: 1-01-2013, 23:16, торрент скачан: 359 раз

Понравилась раздача? Посмотрите эти:
  • Слежка / The Letter (Джей Ананья, Триллер, драма, 2012) [DVDRip, Профессион ...
  • Миллион для чайников / The Brass Teapot (Рамаа Мосли, Фэнтези, триллер, ком ...
  • Астрал на улице Арлетт / 388 Arletta Avenue (Рэндолл Коул, Триллер, 2011) [ ...
  • Секс и ничего лишнего / My Awkward Sexual Adventure (Шон Гэррити, Комедия, ...
  • Рождённый свободным / The Colt (Елена Ланская, драма, боевик, история, 200 ...
  • Киддо - супергрузовичок / Kiddo The Super Truck (Д. Нэйр, Мультфильм, 2002) ...
  • Кажется, я люблю свою жену / I Think I Love My Wife (Крис Рок, Драма, мелод ...
  • Кажется, я люблю свою жену / I Think I Love My Wife (Крис Рок, Драма, мелод ...
  • Темный сахар / Brown Sugar (Рик Фамуйива, Драма, мелодрама, комедия, музыка ...
  • Бог любви / God of Love (Люк Мэзени, Короткометражка, фэнтези, комедия, мел ...
  • Вечерний Ургант // Сезон 2. Выпуск 63 (ТВ-шоу, 20.12.2012) [SATRip, Не треб ...
  • Кейси Джонс / Casey Jones (Иларион Бэнкс, Короткометражка, фэнтези, боевик, ...
  • Заместитель / Il supplente (Андреа Жублин, Короткометражка, комедия, 2007) ...
  • Вечерний Ургант // Сезон 2. Выпуск 66 (ТВ-шоу, 25.12.2012) [SATRip, Не треб ...
  • Дорога на... / Road to (Таисия Игуменцева, Комедия, короткометражный, 2011) ...
  • Покорить высоту / Take It to the Limit (Сэм Кит / Sam Kieth, семейный, 2000 ...
  • Светлячок. Воссоединение Коричневых плащей к 10 годовщине / Firefly 10th An ...
  • У дьявола нет лица / Plasterhead (Кевин Хиггинс / Kevin Higgins, ужасы, три ...
  • Детский душ / Baby Shower (Pablo Illanes, Ужасы, 2011) [DVDRip, Любительски ...
  • Привет, Джули! / Flipped (Роб Райнер, драма, мелодрама, комедия , 2010) [HD ...
  • В лесу / The Forest (Шан Серафин, ужасы, триллер , 2011) [SATRip, Профессио ...
  • Пупупиду / Poupoupidou (Жеральд Юсташ-Матье, комедия, криминал, 2011) [DVDR ...
  • Пожирая живых / Ночь зомби / Zombie Night (Дэвид Дж. Фрэнсис, Ужасы, комеди ...
  • Бюро находок : Потерянный и найденный / Lost and Found (Филип Хант, коротко ...
  • Музыка внутри / Music Within (Стивен Савалич, Драма, мелодрама, комедия, во ...
  • Информация
    Посетители, находящиеся в группе Гости, не могут оставлять комментарии к данной публикации.