вход на сайт

Имя пользователя :
Пароль :

Восстановление пароля Регистрация
Один дома 4 / Home Alone 4 (Род Дэниэл, комедия, криминал, семейный, 2002) [DVDRip, Профессиональный (многоголосый закадровый)]
Рейтинг:
(голосов: 1)



[img]{THEME}/images/logopost.png[/img]



• Один дома 4 / Home Alone 4 •
♥ Год выпуска: 2002
♥ Страна: США
♥ Производство: 20th Century Fox Television, Fox Television Studios
♥ Жанр: комедия, криминал, семейный

♥ Режиссёр: Род Дэниэл
♥ В ролях: Майк Уинберг, Френч Стюарт, Джейсон Бег, Джоэнна Гоуинг, Мисси Пайл, Гидеон Джейкобс, Челси Руссо

♥ Перевод: Профессиональный (многоголосый закадровый) (1 канал)
♥ Озвучка: 1 канал
♥ Субтитры: Отсутствуют


♥ Описание: Мечта любого маленького хулигана — это когда родителей нет дома и в твоем распоряжении целый дом! Для Кевина МакКалистера, нашего старого знакомого, эти мечты сбываются.

На этот раз он готовится встретить Рождество, ожидая родителей и гостей в огромном супердоме, напичканном самыми невероятными техническими устройствами. И поверьте, праздник будет потрясающим! Особенно для горе-бандитов, задумавших проникнуть в дом. Ведь они еще не знают, с кем им придется иметь дело.MediaInfo ▼
TextGeneral
Complete name : C:Odin.Doma.4.DVDRip.avi
Format : AVI
Format/Info : Audio Video Interleave
File size : 1.26 GiB
Duration : 1h 23mn
Overall bit rate : 2 143 Kbps
Writing application : VirtualDubMod 1.5.10.2 (build 2540/release)
Writing library : VirtualDubMod build 2540/release
Video #0
ID : 0
Format : MPEG-4 Visual
Format profile : Advanced [email protected]
Format settings, BVOP : 1
Format settings, QPel : No
Format settings, GMC : No warppoints
Format settings, Matrix : Custom
Codec ID : XVID
Codec ID/Hint : XviD
Duration : 1h 23mn
Bit rate : 1 941 Kbps
Width : 720 pixels
Height : 416 pixels
Display aspect ratio : 16:9
Frame rate : 23.976 fps
Color space : YUV
Chroma subsampling : 4:2:0
Bit depth : 8 bits
Scan type : Progressive
Compression mode : Lossy
Bits/(Pixel*Frame) : 0.270
Stream size : 1.14 GiB (91%)
Writing library : XviD 1.2.0.dev47 (UTC 2006-11-01)
Audio #1
ID : 1
Format : AC-3
Format/Info : Audio Coding 3
Mode extension : CM (complete main)
Codec ID : 2000
Duration : 1h 23mn
Bit rate mode : Constant
Bit rate : 192 Kbps
Channel(s) : 2 channels
Channel positions : Front: L R
Sampling rate : 48.0 KHz
Bit depth : 16 bits
Compression mode : Lossy
Stream size : 115 MiB (9%)
Alignment : Split accross interleaves
Interleave, duration : 42 ms (1.00 video frame)
Interleave, preload duration : 500 ms
♥ Качество: DVDRip
♥ Продолжительность: 01:23:57

♥ Формат: AVI
♥ Видео кодек: XviD
♥ Аудио кодек: AC3
♥ Видео: 720x416 (16:9), 23.976 fps, XviD build 47 ~1941 kbps avg, 0.270 bit/pixel
♥ Аудио1: 48 kHz, AC3 Dolby Digital, 2/0 (L,R) ch, ~192.00 kbps avg

♥ Дата премьеры (мир): 3 ноября 2002

Релиз Группы "Virtus"

Стол заказов / Вступление в РГ / Благодарности, критика и другое


fe56daf5f0f29e71793309c1a4b8817ed6584e58Один дома 4 / Home Alone 4 (Род Дэниэл, комедия, криминал, семейный, 2002) [DVDRip, Профессиональный (многоголосый закадровый)] Один дома 4 / Home Alone 4 (Род Дэниэл, комедия, криминал, семейный, 2002) [DVDRip, Профессиональный (многоголосый закадровый)] " />

Аплоадер: Админ, дата: 26-12-2012, 13:28, торрент скачан: 359 раз

Понравилась раздача? Посмотрите эти:
  • Непристойная комедия / InAPPropriate Comedy (Винс Оффер, комедия, 2013) [D ...
  • Непристойная комедия / InAPPropriate Comedy (Винс Оффер, комедия, 2013) [DV ...
  • Погнали! / Getaway (Кортни Соломон, Боевик, Криминал, 2013) [HDRip, Професс ...
  • Вирус / Flu (Ким Сон Су, Драма, 2013) [HDTVRip, Любительский (двухголосый з ...
  • Орудие смерти / A-i-deul... (Ли Гю Ман, Триллер, криминал, 2011) [DVDRip, П ...
  • Верное дельце / Une pure affaire (Александр Коффре, Боевик, Комедия, Кримин ...
  • Мои герои / Mes heros (Эрик Беснард, комедия, 2012) [HDRip, Профессиональны ...
  • Мэрайа Мунди и шкатулка Мидаса / The Adventurer: The Curse of the Midas Box ...
  • Мужество / Wymyk (Грег Зглински, драма, 2011) [DVDRip, Любительский (одного ...
  • 42 / 42 (Брайан Хелгеленд, драма, биография, спорт, 2013) [BDRip, Профессио ...
  • Безопасность не гарантируется / Safety Not Guaranteed (Колин Треворроу, фан ...
  • Любовь на кончиках пальцев / Populaire (Режис Ройнсар, Мелодрама, комедия, ...
  • В хлам / Smashed (Джеймс Понсольдт, Драма, комедия, 2012) [HDRip, Профессио ...
  • Суперстар / Superstar (Ксавье Джианноли, Драма, комедия, 2012) [HDRip, Проф ...
  • Простые истины / Straight As (Джеймс Кокс, драма, комедия, 2013) [HDRip, П ...
  • Плохая актриса / Bad Actress (Роберт Ли Кинг, комедия, 2011) [DVDRip, Профе ...
  • Джефф, живущий дома / Jeff, Who Lives at Home (Джей Дюпласс, Марк Дюпласс, ...
  • Джефф, живущий дома / Jeff, Who Lives at Home (Джей Дюпласс, Марк Дюпласс, ...
  • Захват / Carjacked (Джон Бонито, триллер, 2011)[BDRip, Профессиональный (мн ...
  • Один дома 5: Праздничное ограбление / Home Alone: The Holiday Heist (Питер ...
  • Битва в пустыне / The Objective (Дэниэл Мирик, ужасы, фантастика, триллер, ...
  • Один дома 4 / Home Alone 4 (Род Дэниэл, Комедия, семейный, 2002 г) [DVDRip, ...
  • Трус / Faintheart (Вито Рокко, Комедия, 2008) [BDRip, Профессиональный (дву ...
  • Супершторм в Сиэтле / Seattle Superstorm (Джейсон Бурк, фантастика, боевик ...
  • Девушки в опасности / Damsels in Distress (Уит Стиллман, драма, мелодрама, ...
  • Информация
    Посетители, находящиеся в группе Гости, не могут оставлять комментарии к данной публикации.