вход на сайт

Имя пользователя :
Пароль :

Восстановление пароля Регистрация
Рождество Христово - Торжественное Рождественское богослужение из Храма Христа Спасителя (Церемония, 31.12.2012) [DVB, Не требуется]
Рейтинг:
(голосов: 1)



[img]{THEME}/images/logopost.png[/img]



Рождество Христово(трансляция с храма Христа спасителя)

Страна: Россия
Производство: Первый канал
Дата выхода в эфир: 07.01.2013
Жанр: Торжественное Рождественское богослужение

Перевод: Не требуется

Описание: Первый канал представляет трансляцию рождественского богослужения из Храма Христа Спасителя в Москве.
Рождество – один из главных христианских праздников, установленный в честь рождения Иисуса Христа от Девы Марии. Русская православная церковь и другие церкви, использующие юлианский календарь, празднуют Рождество 7 января

Качество видео: DVB
Продолжительность: 02:46:36

Формат видео: MPEG-PS
Видео кодек: MPEG2
Аудио кодек: MPEG
Свойства Видео: [email protected] (16:9), MPEG-2 Video, 25 fps, 4193 kbps, 0.404 bit/pixel
Свойства Аудио: MPEG Audio (Version 1) Layer 2, 2 сh, 48 KHz, 192 kbps


Media info
▼General
Complete name : G:КинофильмыДекабрь 2012Рождество Христово. (2013)_DVB.mpg
Format : MPEG-PS
File size : 5.21 GiB
Duration : 2h 46mn
Overall bit rate : 4 474 Kbps
Writing library : (c) 1998-2010 Womble Multimedia, Inc. / MPEG Video Wizard DVD 5.0.0.114 (01/2010) / Apr 20 2010

Video
ID : 224 (0xE0)
Format : MPEG Video
Format version : Version 2
Format profile : [email protected]
Format settings, BVOP : Yes
Format settings, Matrix : Default
Duration : 2h 46mn
Bit rate mode : Variable
Bit rate : 4 193 Kbps
Nominal bit rate : 15.0 Mbps
Width : 720 pixels
Height : 576 pixels
Display aspect ratio : 16:9
Frame rate : 25.000 fps
Standard : PAL
Color space : YUV
Chroma subsampling : 4:2:0
Bit depth : 8 bits
Scan type : Interlaced
Scan order : Top Field First
Bits/(Pixel*Frame) : 0.404
Stream size : 4.88 GiB (94%)
Writing library : (c) 1998-2010 Womble Multimedia, Inc. / MPEG Video Wizard DVD 5.0.0.114 (01/2010) / Apr 20 2010

Audio
ID : 192 (0xC0)
Format : MPEG Audio
Format version : Version 1
Format profile : Layer 2
Duration : 2h 46mn
Bit rate mode : Constant
Bit rate : 192 Kbps
Channel(s) : 2 channels
Sampling rate : 48.0 KHz
Video delay : -40ms
Stream size : 229 MiB (4%)




c374e84b478073cc4a89b71dd96cf6f492284d02 Рождество Христово - Торжественное Рождественское богослужение из Храма Христа Спасителя (Церемония, 31.12.2012) [DVB, Не требуется] Рождество Христово - Торжественное Рождественское богослужение из Храма Христа Спасителя (Церемония, 31.12.2012) [DVB, Не требуется] " />

Аплоадер: Админ, дата: 7-01-2013, 19:36, торрент скачан: 359 раз

Понравилась раздача? Посмотрите эти:
  • Inna / More Than Friends [2013, Pop, Master]
  • Rihanna / What Now [2013, R&B, HDTV]
  • Достучаться До Небес / ГУГЛ [2013, Pop, Master]
  • Пепел // Эпизоды с 1 по 10 (из 10) (Военный, история, 2013) [DVB, Не требуе ...
  • Чемпионат Мира по хоккею 2013 / Группа В / Россия - США / Россия 2 [Хоккей, ...
  • Омела над Манхэттеном / Рождество на Манхэттене / Mistletoe over Manhattan ...
  • Rihanna / Diamonds (Victorias Secret) [2012, RnB, HDTV 1080i]
  • Comedy Club / Павел Воля: «Конец света», Концерт [21.12.2012г., Юмор, ТВ-шо ...
  • Andreea Balan / Trippin [2011, Pop, HDCam]
  • t.A.T.u. / Sparks [2010, Pop, TVRip]
  • [Христианство] Житие преподобного Сергия Радонежского (жития святых) [DVDRi ...
  • [Видеоуроки] Видео уроки по Sony Vegas (2010) [640x480]
  • Тимати, B.K., DJ M.E.G. / Welcome to St. Tropez. Фан Зона. Новая Волна 2011 ...
  • София Ротару / Выступление в Киеве. 20-летие независимости Украины [24.08.1 ...
  • КВН-2011 / Высшая лига / Финал (ТВ-шоу, Юмор, 30.12.2011) [DVB, Не требуетс ...
  • Караваджо. Тайна смерти гения / Caravaggio. The mystery of the death of a g ...
  • (2009) Хор храма Христа Спасителя / Церковные песнопения (Духовные песнопен ...
  • Чемпионат Испании 2011-12 / 35-й тур / Барселона - Реал М / НТВ+ [Футбол, 2 ...
  • ХХХ Летние Олимпийские Игры / Лёгкая атлетика / День 5 / Утро / Спорт 1 [07 ...
  • ХХХ Летние Олимпийские Игры / Лёгкая атлетика / День 5 / Вечер / Спорт 1 [0 ...
  • ХХХ Летние Олимпийские Игры / Волейбол / Мужчины / Четвертьфинал / Польша – ...
  • ХХХ Летние Олимпийские Игры / Лёгкая атлетика / День 6 / Вечер / Спорт 1 [0 ...
  • ХХХ Летние Олимпийские Игры / Лёгкая атлетика / День 7 / Утро / Спорт 1 [09 ...
  • Церемония закрытия летних Олимпийских Игр Лондон 2012 | НТВ+ [Олимпиада, 12 ...
  • Namie Amuro / Love Story [2011, JPop, HDTVRip]
  • Информация
    Посетители, находящиеся в группе Гости, не могут оставлять комментарии к данной публикации.