вход на сайт

Имя пользователя :
Пароль :

Восстановление пароля Регистрация
Первый Новогодний вечер с Максимом Галкиным и Владимиром Зеленским (ТВ-Шоу, концерт, 01.01.2013) [HDTV 1080i, Не требуется]
Рейтинг:
(голосов: 1)



[img]{THEME}/images/logopost.png[/img]



Первый Новогодний вечер с Максимом Галкиным и Владимиром Зеленским

Страна:Россия
Производство: Телеканал "Россия"
Дата выхода в эфир: 01.01.2013
Жанр: ТВ-Шоу, концерт

Режиссёр: Первый канал
Ведущие: Максим Галкин и Владимир Зеленский.
Участники: "Потап и Настя", Юрий Антонов, Леонид Агутин, Елена Ваенга, Лев Лещенко, группа "А-студио" и другие.

Перевод: Не требуется

Описание:Новый год уже наступил! Однако впереди еще много выходных дней, а значит... продолжаем праздновать! Первый вечер нового 2013 года лучше всего провести в теплой компании с Максимом Галкиным и Владимиром Зеленским, тем более что к ним в гости уже пришли "Потап и Настя", Юрий Антонов, Леонид Агутин, Елена Ваенга, Лев Лещенко, группа "А-студио" и другие. Неожиданными дуэтами зрителей порадуют Николай Басков и Наталья Королева, Елена Воробей и Рустам Штар, Александр Буйнов и Ани Лорак.

Качество: HDTV 1080i
Продолжительность: 01:02:23час.

Формат: TS
Видео кодек: AVC
Аудио кодек: MPEG Audio
Свойства видео: 1920x1080 (16:9), 25.000 fps, ~11.7 Mbps, 0.226bit/pixel
Свойства аудио: 48 kHz, MPEG Audio, 2 ch, 192 kbps

MediaInfo ▼General
ID : 11 (0xB)
Format : MPEG-TS
File size : 5.42 GiB
Duration : 1h 2mn
Overall bit rate mode : Variable
Overall bit rate : 12.5 Mbps

Video
ID : 501 (0x1F5)
Menu ID : 1105 (0x451)
Format : AVC
Format/Info : Advanced Video Codec
Format profile : [email protected]
Format settings, CABAC : Yes
Format settings, ReFrames : 4 frames
Codec ID : 27
Duration : 1h 2mn
Bit rate : 11.7 Mbps
Width : 1 920 pixels
Height : 1 080 pixels
Display aspect ratio : 16:9
Frame rate : 25.000 fps
Standard : Component
Color space : YUV
Chroma subsampling : 4:2:0
Bit depth : 8 bits
Scan type : Interlaced
Scan order : Top Field First
Bits/(Pixel*Frame) : 0.226
Stream size : 5.06 GiB (93%)
Color primaries : BT.709
Transfer characteristics : BT.709
Matrix coefficients : BT.709

Audio
ID : 502 (0x1F6)
Menu ID : 1105 (0x451)
Format : MPEG Audio
Format version : Version 1
Format profile : Layer 2
Codec ID : 4
Duration : 1h 2mn
Bit rate mode : Constant
Bit rate : 192 Kbps
Channel(s) : 2 channels
Sampling rate : 48.0 KHz
Compression mode : Lossy
Delay relative to video : -640ms
Stream size : 85.2 MiB (2%)
Language : Russian

Menu
ID : 500 (0x1F4)
Menu ID : 1105 (0x451)
Duration : 1h 2mn
List : 501 (0x1F5) (AVC) / 502 (0x1F6) (MPEG Audio, Russian)
Language : / Russian







f0bfb4ab3f661803fca3e9b048657e5ba9841471Первый Новогодний вечер с Максимом Галкиным и Владимиром Зеленским (ТВ-Шоу, концерт, 01.01.2013) [HDTV 1080i, Не требуется] Первый Новогодний вечер с Максимом Галкиным и Владимиром Зеленским (ТВ-Шоу, концерт, 01.01.2013) [HDTV 1080i, Не требуется] " />

Аплоадер: Админ, дата: 2-01-2013, 01:59, торрент скачан: 359 раз

Понравилась раздача? Посмотрите эти:
  • VA / Праздничный концерт. 35 лет газете Аргументы и Факты [2013, Pop, HDTV ...
  • Beyoncе / The Sound Of Change Live [2013, Pop, HDTV 1080i]
  • Beyoncе / The Sound Of Change Live [2013, Pop, HDTV 1080i]
  • VA / Праздничный концерт. 20 лет Авторадио [2013, Pop, HDTV 1080i]
  • Новогодние вечера с Максимом Галкиным и Владимиром Зеленским // Выпуск №1-2 ...
  • Новогодние вечера с Максимом Галкиным и Владимиром Зеленским // Выпуск №1-2 ...
  • Rihanna / What Now [2013, R&B, HDTV]
  • Enrique Iglesias / Heart Attack [2013, Pop, HDTV]
  • Чемпионат Мира 2014 / Отборочный турнир / Группа I / 10-й тур / Беларусь - ...
  • Чемпионат Англии 2012-2013 / 36-й тур / Манчестер Юнайтед - Челси / Спорт 1 ...
  • Чемпионат Германии 2012-2013 / 32-й тур / Боруссия (Дортмунд) – Бавария / Н ...
  • Чемпионат Испании 2012-13 / 34-й тур / Реал Мадрид - Вальядолид / НТВ+ [04. ...
  • Парад Победы. Москва. Красная Площадь / Военный парад, посвящённый 68-й год ...
  • Denis Lebedev VS Guillermo Jones / Денис Лебедев - Гильермо Джонс / Спорт 1 ...
  • [NG] Превосходство бегемота / The superiority of the hippo (Документальный, ...
  • Лига Чемпионов 2012-13 / 1/2 Финала / Первый Матч / Бавария (Германия) — Ба ...
  • Вечерний Ургант // Сезон 3, выпуск 41 (ТВ-шоу, 29.03.2013) [HDTV 1080i , Не ...
  • Чемпионат Испании 2011-12 / 35-й тур / Барселона - Реал / Футбол HD [Футбол ...
  • Rihanna / Diamonds (Victorias Secret) [2012, RnB, HDTV 1080i]
  • Голос // Выпуск 13 / Суперфинал (ТВ-шоу, 29.12.2012) [HDTV |1080i|, Не треб ...
  • Новогодний парад звезд (ТВ-шоу, 31.12.2012) [HDTV 1080i, Не требуется]
  • Новогодний Голубой огонек-2013 (Тв-Шоу, 2012) [HDTV 1080i, Не требуется]
  • Первый Новогодний вечер с Максимом Галкиным и Владимиром Зеленским (Развлек ...
  • Второй Новогодний вечер (Развлекательное шоу, концерт, 02.01.2013) [SATRip, ...
  • Первый Новогодний вечер с Максимом Галкиным и Николаем Басковым [2012, Разв ...
  • Информация
    Посетители, находящиеся в группе Гости, не могут оставлять комментарии к данной публикации.