вход на сайт

Имя пользователя :
Пароль :

Восстановление пароля Регистрация
Сэм и Кэт / Sam & Cat // Сезон 1, эпизоды с 1 по 4 (из 40) (комедия, семейный, ситком, 2013) [WEB-DL 1080p, Профессиональный (полное дублирование от SDI Media по заказу Nickelodeon)]
Рейтинг:
(голосов: 1)



[img]{THEME}/images/logopost.png[/img]



« Сэм и Кэт / Sam & Cat »

¤Сезон 1, эпизоды с 1 по 4 (из 40)¤

Информация о фильме
Год выпуска: 2013
Страна: США
Производство: Nickelodeon Productions, Schneiders Bakery
Жанр: комедия, семейный, ситком

Режиссёр: Стив Хофер, Пол Аллен, Дэн Фришман
В ролях: Дженнет МакКарди, Ариана Гранде, Камерон Окасио, Зоран Корач, Мари Читхэм, Ронни Дж. Кларк, Хезер Фри, Гриффин Кэйн, Эмили Скиннер, Софиа Грэйс Браунли

Перевод: Профессиональный (полное дублирование от SDI Media)
Озвучка: SDI Media (по заказу Nickelodeon)
Субтитры: нет

Описание
¤ ¤ ¤
- ...Две подружки Сэм и Кэт решают начать свой бизнес. Они станут няньками и будут попадать в разные комедийные ситуации в своей жизни... -
¤ ¤ ¤

Список эпизодов: ▼Эпизод 1. Пилот / Pilot
Эпизод 2. Любимое шоу / Favorite Show
Эпизод 3. Британские детки / The BritBrats
Эпизод 4. Козлик / New Goat





Все раздачи сериала

Тех.Данные
Качество: WEB-DL 1080p
Продолжительность: по ~ 00:23:00

Формат: Matroska-MKV-
Видео кодек: AVC [email protected]
Аудио кодек: Audio Coding 3
Свойства видео: 1908x1068 (16:9), 23,976 fps, AVC ~5082 kbps avg, 0.104 bit/pixel
Свойства аудио: 48 kHz, AC3 Dolby Digital, 2/0 (L,R) ch, ~192 kbps

▼TextОбщее
Уникальный идентификатор : 210294825308906897224114887007438792196 (0x9E354F641A898DF89F87336A93D26604)
Полное имя : E:DownloadsСэм и Кэт.2013�1.Пилот.WEB-DL 1080p.mkv
Формат : Matroska
Версия формата : Version 2
Размер файла : 894 Мбайт
Продолжительность : 23 м.
Общий поток : 5381 Кбит/сек
Дата кодирования : UTC 2013-10-21 12:21:05
Программа кодирования : mkvmerge v3.0.0 (Hang up your Hang-Ups) built on Jan 6 2010 22:49:38
Библиотека кодирования : libebml v0.7.9 + libmatroska v0.8.1

Видео
Идентификатор : 1
Формат : AVC
Формат/Информация : Advanced Video Codec
Профиль формата : [email protected]
Параметр CABAC формата : Да
Параметр ReFrames формата : 4 кадра
Идентификатор кодека : V_MPEG4/ISO/AVC
Продолжительность : 23 м.
Битрейт : 5082 Кбит/сек
Ширина : 1908 пикселей
Высота : 1068 пикселей
Соотношение сторон : 16:9
Частота кадров : 23,976 кадра/сек
Цветовое пространство : YUV
Субдискретизация насыщенности : 4:2:0
Битовая глубина : 8 бит
Тип развёртки : Прогрессивная
Бит/(Пиксели*Кадры) : 0.104
Размер потока : 844 Мбайт (94%)
Язык : English
Default : Нет
Forced : Нет
Основные цвета : BT.709-5, BT.1361, IEC 61966-2-4, SMPTE RP177
Характеристики трансфера : BT.709-5, BT.1361
Коэффициенты матрицы : BT.709-5, BT.1361, IEC 61966-2-4 709, SMPTE RP177

Аудио
Идентификатор : 2
Формат : AC-3
Формат/Информация : Audio Coding 3
Расширение режима : CM (complete main)
Идентификатор кодека : A_AC3
Продолжительность : 23 м.
Вид битрейта : Постоянный
Битрейт : 192 Кбит/сек
Каналы : 2 канала
Расположение каналов : Front: L R
Частота : 48,0 КГц
Битовая глубина : 16 бит
Метод сжатия : С потерями
Размер потока : 31,9 Мбайт (4%)
Default : Да
Forced : Нет


Внимание! Раздача ведётся путём добавления новых серий; ▼При каждом добавлении создаётся новый торрент. Чтобы начать докачку новой серии, пользователям необходимо сделать следующее:
(1) остановить скачивание,
(2) удалить старый торрент у себя из клиента (старые серии удалять не надо),
(3) скачать новый торрент и запустить его у себя в клиенте вместо старого, при этом указать клиенту путь в старую папку куда и должно происходить скачивание новых серий.
Ваш клиент при этом должен произвести хеширование (проверку) старой папки (если не производит сам - помогите ему сделать это), и будет докачивать только те серии которых у вас ещё нет. Старые серии при этом не удаляются, а продолжают раздаваться!
Eсли вы уже удалили старые серии, то предотвратить повторную закачку старых серий можно, отжав галочку в соответствующих местах при запуске нового торрента. По возможности, желательно не удалять старые серии как можно дольше чтобы релизёр не столько продолжал разда
b41893fc89b692836e38e986663dc967e181a853Сэм и Кэт / Sam & Cat // Сезон 1, эпизоды с 1 по 4 (из 40) (комедия, семейный, ситком, 2013) [WEB-DL 1080p, Профессиональный (полное дублирование от SDI Media по заказу Nickelodeon)] Сэм и Кэт / Sam & Cat // Сезон 1, эпизоды с 1 по 4 (из 40) (комедия, семейный, ситком, 2013) [WEB-DL 1080p, Профессиональный (полное дублирование от SDI Media по заказу Nickelodeon)] " />

Аплоадер: Админ, дата: 14-11-2013, 13:28, торрент скачан: 359 раз

Понравилась раздача? Посмотрите эти:
  • Воронины // Эпизоды с 253 по 272 (из 280) (Комедия, семейный, 2013) [SATRip ...
  • Сэм и Кэт / Sam & Cat // Сезон 1, эпизоды с 1 по 13 (из 40) (комедия, семей ...
  • Солдаты напрокат (Сергей Клишин, Дмитрий Бышов, документальный, 2013) [HDTV ...
  • Лего: Звёздные войны - Награда бомбада / LEGO: Star wars - Вombad Bounty (П ...
  • Сочинский сериал Непосредственно Каха // Сезон 1, Эпизоды с 1 по 18 (из ??) ...
  • Айкарли / iCarly // Сезон 7, Эпизод 1 (из 7) (Ситком, 2012) [WEB-DLRip, Про ...
  • Плебеи / Plebs // Сезон 1, эпизоды с 1 по 5 (из 6) (Комедия, 2013) [WEB-DLr ...
  • Сочинский сериал Непосредственно Каха // Сезон 1, Эпизоды с 1 по 17 (из ??) ...
  • Семья алкоголика // Эпизоды с 1 по 6 (из ?) (pеалити, комедия, сериал, 2012 ...
  • Плебеи / Plebs // Сезон 1, эпизоды с 1 по 2 (из 6) (Комедия, 2013) [HDTVRip ...
  • Сочинский сериал Непосредственно Каха // Сезон 1, Эпизоды с 1 по 14 (из ??) ...
  • Мой сосед - красавчик / Neighbor Hottie / Flower Boy Next Door // Сезон 1, ...
  • Вперед - к успеху / Big Time Rush // Сезон 3, Эпизоды с 1 по 8,10 (из 12) ( ...
  • Мой сосед - красавчик / Neighbor Hottie / Flower Boy Next Door // Сезон 1, ...
  • Вперед - к успеху / Big Time Rush // Сезон 3, Эпизоды с 1 по 7 (из 12) (Ком ...
  • Мой сосед - красавчик / Neighbor Hottie / Flower Boy Next Door // Сезон 1, ...
  • Скрат: Потерянный орех / Scrat: Gone Nutty (Carlos Saldanha, мультфильм, к ...
  • Скарат: Не время для орехов / Scrat: No Time For Nuts (Крис Рено, Майк Тёр ...
  • Сид, инструкция по выживанию / Surviving Sid (Гален Т. Чу, Карен Дишер, мул ...
  • Виктория - победительница / Victorious // Сезон 3, эпизоды с 2 по 7 (из ?? ...
  • Мой сосед - красавчик / Neighbor Hottie / Flower Boy Next Door // Сезон 1, ...
  • Ублюдки / Mongrels // Сезон 1, эпизоды с 1 по 2 (из 8) (Ситком, 2010) [HDT ...
  • Пингвины Мадагаскара / The Penguins Of Madagascar // Сезон 3, эпизоды с 27 ...
  • Вперед - к успеху / Big Time Rush // Сезон 3, Эпизоды с 1 по 5 (из 12) (Ком ...
  • Семья алкоголика // Эпизоды с 1 по 5 (из ?) (pеалити, комедия, сериал, 2012 ...
  • Информация
    Посетители, находящиеся в группе Гости, не могут оставлять комментарии к данной публикации.