вход на сайт

Имя пользователя :
Пароль :

Восстановление пароля Регистрация
Шесть шведок с бензоколонки / Sechs Schwedinnen von der Tankstelle (Эрвин С. Дитрих, Эротика, комедия, 1980) [DVDRip-AVC, Закадровый (одноголосый)]
Рейтинг:
(голосов: 1)



[img]{THEME}/images/logopost.png[/img]



« Шесть шведок с бензоколонки / Sechs Schwedinnen von der Tankstelle »

Информация о фильме
Год выпуска: 1980
Страна: Швейцария
Производство: N / A
Жанр: Эротика, комедия

Режиссёр: Эрвин С. Дитрих / Erwin C. Dietrich
В ролях: Брижит Лаэ, Надин Паскаль, Френс Джордан, Джейн Бэйкер, Флора Соллер, Элоди Далаж, Эльза Маруся, Эрик Фальк, Роман Хубер, Барбара Моос

Перевод: Закадровый (одноголосый)
Озвучка: не известно
Субтитры: нет

Описание
***
-...Шесть сексапильных шведок унаследовали бензоколонку в швейцарском селе и обслуживают своих клиентов по полной программе. Оскорбленная мораль мэра и его советников подталкивают их на закрытие этого «бизнеса» веселых девиц. Однако все советники имеют любовную связь с женой мэра и подглядывают за девицами, когда те занимаются зарядкой в близлежащем лесу. Желание моралистов закрыть бензоколонку становится все слабее и слабее по мере того, как они знакомятся со шведками все ближе и ближе...-
***



Полный Скринлист ▼

Тех.Данные
Качество: DVDRip-AVC
Продолжительность: ~ 01:21:07 часа

Формат: Matroska-MKV-
Видео кодек: AVC [email protected]
Аудио кодек: Audio Coding 3
Видео: 720x392 (16:9), 25.000 fps, AVC [email protected] ~2000 kbps avg, 0.283 bit/pixel
Аудио: 48 kHz, AC3 Dolby Digital, 2/0 (L,R) ch, ~192 kbps

Информация MediaInfo ▼TextОбщее
Уникальный идентификатор : 219624939330625066363181471070626990951 (0xA53A39873103FB769CB1D8ADCEC74B67)
Полное имя : E:DownloadsШесть шведок с бензоколонки.1980.DVDRip-AVC.mkv
Формат : Matroska
Версия формата : Version 2
Размер файла : 1,24 Гбайт
Продолжительность : 1 ч. 21 м.
Общий поток : 2193 Кбит/сек
Дата кодирования : UTC 2011-08-28 17:46:39
Программа кодирования : mkvmerge v2.9.8 (Cest le bon) built on Aug 24 2009 17:34:03
Библиотека кодирования : libebml v0.7.7 + libmatroska v0.8.1

Видео
Идентификатор : 1
Формат : AVC
Формат/Информация : Advanced Video Codec
Профиль формата : [email protected]
Параметр CABAC формата : Да
Параметр ReFrames формата : 8 кадров
Идентификатор кодека : V_MPEG4/ISO/AVC
Продолжительность : 1 ч. 21 м.
Битрейт : 2000 Кбит/сек
Ширина : 720 пикселей
Высота : 392 пикселя
Соотношение сторон : 16:9
Частота кадров : 25,000 кадров/сек
Цветовое пространство : YUV
Субдискретизация насыщенности : 4:2:0
Битовая глубина : 8 бит
Тип развёртки : Прогрессивная
Бит/(Пиксели*Кадры) : 0.283
Размер потока : 1,11 Гбайт (89%)
Библиотека кодирования : x264 core 75 r1251kMod e553a4c
Настройки программы : cabac=1 / ref=8 / deblock=1:-1:-1 / analyse=0x3:0x133 / me=umh / subme=7 / psy=1 / psy_rd=1.0:0.0 / mixed_ref=1 / me_range=20 / chroma_me=1 / trellis=2 / 8x8dct=1 / cqm=0 / deadzone=21,11 / chroma_qp_offset=-2 / threads=12 / nr=0 / decimate=1 / mbaff=0 / bframes=3 / b_pyramid=0 / b_adapt=2 / b_bias=0 / direct=1 / wpredb=1 / keyint=250 / keyint_min=25 / scenecut=40 / rc_lookahead=40 / rc=abr / mbtree=1 / bitrate=2000 / ratetol=1.0 / qcomp=0.60 / qpmin=10 / qpmax=51 / qpstep=4 / ip_ratio=1.40 / aq=1:1.00
Default : Да
Forced : Нет

Аудио
Идентификатор : 2
Формат : AC-3
Формат/Информация : Audio Coding 3
Расширение режима : CM (complete main)
Идентификатор кодека : A_AC3
Продолжительность : 1 ч. 21 м.
Вид битрейта : Постоянный
Битрейт : 192 Кбит/сек
Каналы : 2 канала
Расположение каналов : Front: L R
Частота : 48,0 КГц
Битовая глубина : 16 бит
Метод сжатия : С потерями
Размер потока : 112 Мбайт (9%)
Default : Да
Forced : Нет

_____________________________________________________________________________________


4f1577e32b359c4e4708e15af2f5edfbfc444706Шесть шведок с бензоколонки / Sechs Schwedinnen von der Tankstelle (Эрвин С. Дитрих, Эротика, комедия, 1980) [DVDRip-AVC, Закадровый (одноголосый)] Шесть шведок с бензоколонки / Sechs Schwedinnen von der Tankstelle (Эрвин С. Дитрих, Эротика, комедия, 1980) [DVDRip-AVC, Закадровый (одноголосый)] " />

Аплоадер: Админ, дата: 21-12-2013, 11:38, торрент скачан: 359 раз

Понравилась раздача? Посмотрите эти:
  • Подглядывающий на кухне / Kick the Cock (Тинто Брасс, Эротика, короткометра ...
  • Шесть шведок в Альпах / Sechs Schwedinnen auf der Alm (Пол Грау, Эротика, к ...
  • Ад каннибалов / Cannibal Holocaust (Руджеро Деодато, ужасы, приключения, 19 ...
  • [NG] Комета века / Comet of the century (документальный, 2013) [HDTVRip-AVC ...
  • Усатый нянь (Владимир Грамматиков, комедия, семейный, 1977) [DVDRip-AVC, Не ...
  • Мальчишник: Часть III / The Hangover Part III (Тодд Филлипс, комедия, 2013) ...
  • Башня / The Tower (Чи-хун Ким, драма, 2012) [BDRip-AVC, Любительский (двухг ...
  • Обман Обамы / The Obama Deception: The Mask Comes Off (Документальный, 2009 ...
  • Гараж (Эльдар Рязанов, драма, комедия, 1979) [DVDRip-AVC, Оригинал (русский ...
  • Голливудский мусор / Garbage (Филипп Волкен, драма, комедия, 2013) [HDTVRip ...
  • [BBC] BBC: Безжалостные убийцы / BBC: Ultimate Killers // Выпуск 1 по 3 (из ...
  • Рикошет / Ricochet (Ник Гомез, драма, детектив, 2011) [BDRip-AVC, Профессио ...
  • [BBC] BBC: Змеи / Wildlife Special. Serpent (Документальный, 2003) [DVDRip- ...
  • [NG] Война львов / Lion Battle Zone (документальный, 2011) [HDTVRip-AVC, Пр ...
  • Новые технологии войны / The New Technology of War [Часть 1] (документальны ...
  • Новые технологии войны / The New Technology of War [Часть 2] (документальны ...
  • Дикий запад. Кино и реальность / The Wild And The West (документальный, 200 ...
  • Ну ты и придурок! / You Stupid Man (Брайан Барнс, мелодрама, комедия, 2002) ...
  • Суррогат / The Sessions (Бен Луин, Драма, 2012) [BDRip-AVC, Профессиональны ...
  • Чемпионат Англии 2012-2013 / 25-й тур / Обзор / Суббота / BBC Sport [2013 г ...
  • Иностранный легион / La cité (Ким Нгуйен / Kim Nguyen, драма, 2010) [DVDRip ...
  • Белка: Не время для орехов / Scrat: No Time for Nuts (Крис Рено, Майк Труме ...
  • Лоракс: Серенада / The Lorax: Serenade (Кайл Балда, мультфильм, комедия, му ...
  • [NG] Гитлеровские лагеря смерти / Hitlers G.I. Death Camp (документальный, ...
  • VA (Korn, Flyleaf, Deftones, Dir En Grey, 10 Years, Stone Sour, Deadsy) / F ...
  • Информация
    Посетители, находящиеся в группе Гости, не могут оставлять комментарии к данной публикации.