вход на сайт

Имя пользователя :
Пароль :

Восстановление пароля Регистрация
Далеко от войны // Эпизоды с 1 по 4 (из 4) (драма, военный, 2012) [DVDRip-AVC, Не требуется]
Рейтинг:
(голосов: 1)



[img]{THEME}/images/logopost.png[/img]



Далеко от войны
Эпизоды с 1 по 4 (из 4)

Год выпуска: 2012
Страна: Россия
Производство: Централ Партнершип
Жанр: драма, военный

Режиссёр: Ольга Музалева
В ролях: Екатерина Федулова, Александр Сирин, Игорь Савочкин, Ксения Суркова, Алексей Веселкин, Максим Емельянов, Александр Пацевич, Максим Севриновский, Ирина Латушко, Артур Бесчастный...

Перевод: Не требуется
Субтитры: Отсутствуют

Описание: Молодая девушка Лида в разгар Великой Отечественной войны живет в небольшом городе, в тылу. Когда все мужчины ушли на фронт, с Лидой остался лишь один верный товарищ — пес по имени Каштан, безродный, но очень преданный. Но однажды суровая война добралась и до Лидиного друга. Каштана увидели на улице и «мобилизовали» в ряды советской армии и качестве собаки-подрывника.

Желая спасти Каштана от такой участи, Лида обращается за помощью к одному из солдат «собачьей» спецчасти. Боец Стариков обещает выручить пса, но вскоре понимает, что с Лидой его связывает не только данное слово: девушка и молодой парень испытывают друг к другу глубокую симпатию. Но хрупкое счастье двух влюбленных не продлится долго — очень скоро в часть придет приказ о ее расформировании и уничтожении подготовленных собак, так как они больше не нужны.


Дата премьеры (мир): 9 мая 2012

Все раздачи сериала

Качество: DVDRip-AVC
Продолжительность: по ~00:52:00

Формат: MKV
Видео кодек: AVC
Аудио кодек: AC3 Dolby Digital
Свойство видео: [email protected] (16:9), 25,000 fps, AVC ~ 1797 kbps avg, 0.173 bit/pixel
Свойство аудио: 48 kHz, AC3 Dolby Digital, 2 ch, ~192.00 kbps avg
MediaInfo ▼Общее
Полное имя : Daleko.ot.vojny.2012.O.DVDRip-AVC1.mkv
Формат : Matroska
Версия формата : Version 2
Размер файла : 743 Мбайт
Продолжительность : 52 м.
Общий поток : 1990 Кбит/сек
Дата кодирования : UTC 2012-05-21 03:07:51
Программа кодирования : mkvmerge v5.0.1 (Es ist Sommer) built on Nov 6 2011 16:23:40
Библиотека кодирования : libebml v1.2.2 + libmatroska v1.3.0
Видео
Идентификатор : 1
Формат : AVC
Формат/Информация : Advanced Video Codec
Профиль формата : [email protected]
Параметр CABAC формата : Да
Параметр ReFrames формата : 11 кадров
Идентификатор кодека : V_MPEG4/ISO/AVC
Продолжительность : 52 м.
Битрейт : 1797 Кбит/сек
Ширина : 720 пикселей
Высота : 576 пикселей
Соотношение сторон : 16:9
Соотношение сторон в оригинале : 16:9
Частота кадров : 25,000 кадров/сек
Стандарт вещания : PAL
Цветовое пространство : YUV
Субдискретизация насыщенности : 4:2:0
Битовая глубина : 8 бит
Тип развёртки : Прогрессивная
Бит/(Пиксели*Кадры) : 0.173
Размер потока : 656 Мбайт (88%)
Библиотека кодирования : x264 core 119 r2106 07efeb4
Настройки программы : cabac=1 / ref=11 / deblock=1:0:0 / analyse=0x3:0x113 / me=umh / subme=10 / psy=1 / psy_rd=1.00:0.20 / mixed_ref=1 / me_range=32 / chroma_me=1 / trellis=2 / 8x8dct=1 / cqm=0 / deadzone=21,11 / fast_pskip=0 / chroma_qp_offset=-3 / threads=6 / sliced_threads=0 / nr=0 / decimate=0 / interlaced=0 / bluray_compat=0 / constrained_intra=0 / bframes=8 / b_pyramid=2 / b_adapt=2 / b_bias=0 / direct=3 / weightb=1 / open_gop=0 / weightp=2 / keyint=250 / keyint_min=25 / scenecut=40 / intra_refresh=0 / rc_lookahead=60 / rc=2pass / mbtree=1 / bitrate=1797 / ratetol=1.0 / qcomp=0.60 / qpmin=0 / qpmax=69 / qpstep=4 / cplxblur=20.0 / qblur=0.5 / ip_ratio=1.40 / aq=1:1.00
Default : Да
Forced : Нет
Аудио
Идентификатор : 2
Формат : AC-3
Формат/Информация : Audio Coding 3
Расширение режима : CM (complete main)
Параметр Endianness формата : Big
Идентификатор кодека : A_AC3
Продолжительность : 52 м.
Вид битрейта : Постоянный
Битрейт : 192 Кбит/сек
Каналы : 2 канала
Расположение каналов : Front: L R
Частота : 48,0 КГц
Битовая глубина : 16 бит
Метод сжатия : С потерями
Размер потока : 71,6 Мбайт (10%)
Default : Да
Forced : Нет





3bdc52522028280e67424cce9146a315a6986fe4Далеко от войны // Эпизоды с 1 по 4 (из 4) (драма, военный, 2012) [DVDRip-AVC, Не требуется] Далеко от войны // Эпизоды с 1 по 4 (из 4) (драма, военный, 2012) [DVDRip-AVC, Не требуется] " />

Аплоадер: Админ, дата: 30-06-2012, 12:29, торрент скачан: 359 раз

Понравилась раздача? Посмотрите эти:
  • Околофутбола (Антон Борматов, драма, криминал, 2013) [DVDRip-AVC, Не требуе ...
  • Усатый нянь (Владимир Грамматиков, комедия, семейный, 1977) [DVDRip-AVC, Не ...
  • Интимные места (Наталья Меркулова, Алексей Чупов, драма, мелодрама, 2013) [ ...
  • Марафон (Карен Оганесян, комедия, 2013) [DVDRip-AVC, Не требуется]
  • Они сражались за Родину (полная версия) (Сергей Бондарчук, драма, военный, ...
  • А зори здесь тихие... // Эпизоды с 1 по 12 (из 12) (Боевик, драма, военный ...
  • Великая Отечественная Война, Восточный фронт / World War II, The Eastern fr ...
  • Кавказский пленник (Сергей Бодров, драма, военный, 1996) [DVDRip-AVC, не тр ...
  • Паровозик Тишка / Сезон 1, Эпизоды с 1 по 12 (из 12) (мультфильм, короткоме ...
  • Новые технологии войны / The New Technology of War [Часть 1] (документальны ...
  • Новые технологии войны / The New Technology of War [Часть 2] (документальны ...
  • Туман 2 (Иван Шурховецкий, фантастика, драма, военный, 2012) [DVDRip-AVC, О ...
  • Мертвое поле (Александр Аравин, Драма, военный, 2006) [DVDRip-AVC, Оригинал ...
  • Максимка (Владимир Браун, приключения, 1952) [DVDRip-AVC, Не требуется]
  • Чемпионат Англии 2012-2013 / 25-й тур / Обзор / Суббота / BBC Sport [2013 г ...
  • Самоубийцы (Егор Баранов, комедия, 2012) [DVDRip-AVC, Оригинал]
  • 1812: Уланская баллада (Олег Фесенко, Приключения, 2012) [BDRip-AVC, Не тре ...
  • Я тоже хочу (Алексей Балабанов, драма, криминал, 2012) [DVDRip-AVC, Не треб ...
  • День учителя (Сергей Мокрицкий, драма, 2012) [DVDRip-AVC, Не требуется]
  • Скрат: Потерянный орех / Scrat: Gone Nutty (Карлос Салдана, короткометражка ...
  • Лоракс: Серенада / The Lorax: Serenade (Кайл Балда, мультфильм, комедия, му ...
  • Блиндаж // Эпизоды с 1 по 4 (из 4) (драма, военный, 2011) [DVDRip-AVC, Не т ...
  • Команда восемь // Эпизоды с 1 по 4 (из 4) (Драма, приключения, военный, 201 ...
  • МУР // Эпизоды с 1 по 20 (из 20) (криминал, военный, 2012) [DVDRip-AVC, Не ...
  • Далеко от войны // Эпизоды с 1 по 4 (из 4) (Военный, 2012) [SATRip, Не треб ...
  • Информация
    Посетители, находящиеся в группе Гости, не могут оставлять комментарии к данной публикации.