вход на сайт

Имя пользователя :
Пароль :

Восстановление пароля Регистрация
Военная разведка. Западный фронт // Эпизоды с 1 по 8 (из 8) (приключения, военный, 2010) [DVDRip-AVC, Не требуется]
Рейтинг:
(голосов: 1)



[img]{THEME}/images/logopost.png[/img]





Военная разведка. Западный фронт
Эпизоды с 1 по 8 (из 8)

Год выпуска: 2010
Страна: Россия
Производство: Грин-фильм
Жанр: приключения, военный

Режиссёр: Алексей Праздников
В ролях: Павел Трубинер, Филипп Азаров, Степан Бекетов, Борис Щербаков, Сергей Кошонин, Евгений Ганелин, Лев Дуров, Владимир Гостюхин, Кирилл Сафонов, Мария Горбань, Лянка Грыу, Андрей Ильин, Борис Смолкин, Ольга Ломоносова, Юрий Ицков, Михаил Колядин

Перевод: Не требуется
Субтитры: Нет

Описание: Секретной группе 5-го разведывательного управления РККА поручают только особо опасные задания. Никому не известны имена бойцов этого подразделения, но их заслуги Отечество никогда не забудет. В послужном списке героев сотни заданий — уничтожение отряда фашистских провокаторов, переброска секретных документов, поимка вражеских диверсантов, организации прикрытия советских резидентов и многие другие подвиги, информация о которых до сих пор хранится в военных архивах под грифом «совершено секретно»…




Дата премьеры (РФ): 25 сентября 2010
Все раздачи сериала

Качество: DVDRip-AVC
Продолжительность: по ~ 00:52:00

Формат: MKV
Видео кодек: AVC
Аудио кодек: AC3
Свойства видео: [email protected] (16:9), 25.000 fps, ~2 490 kbps avg, 0.240 bit/pixel
Свойства aудио: 48.0 KHz, 6 channels (Front: L C R, Side: L R, LFE), 384.00 kbps avg
MediaInfo ▼TextFormat : Matroska
Format version : Version 2
File size : 1.05 GiB
Duration : 52mn 14s
Overall bit rate : 2 875 Kbps
Encoded date : UTC 2012-05-17 08:05:15
Writing application : mkvmerge v5.0.1 (Es ist Sommer) built on Nov 6 2011 16:23:40
Writing library : libebml v1.2.2 + libmatroska v1.3.0

Video
ID : 1
Format : AVC
Format/Info : Advanced Video Codec
Format profile : [email protected]
Format settings, CABAC : Yes
Format settings, ReFrames : 11 frames
Codec ID : V_MPEG4/ISO/AVC
Duration : 52mn 14s
Bit rate : 2 490 Kbps
Width : 720 pixels
Height : 576 pixels
Display aspect ratio : 16:9
Original display aspect ratio : 16:9
Frame rate : 25.000 fps
Standard : PAL
Color space : YUV
Chroma subsampling : 4:2:0
Bit depth : 8 bits
Scan type : Progressive
Bits/(Pixel*Frame) : 0.240
Stream size : 909 MiB (85%)
Writing library : x264 core 119 r2106 07efeb4
Encoding settings : cabac=1 / ref=11 / deblock=1:0:0 / analyse=0x3:0x113 / me=umh / subme=10 / psy=1 / psy_rd=1.00:0.20 / mixed_ref=1 / me_range=32 / chroma_me=1 / trellis=2 / 8x8dct=1 / cqm=0 / deadzone=21,11 / fast_pskip=0 / chroma_qp_offset=-3 / threads=6 / sliced_threads=0 / nr=0 / decimate=0 / interlaced=0 / bluray_compat=0 / constrained_intra=0 / bframes=8 / b_pyramid=2 / b_adapt=2 / b_bias=0 / direct=3 / weightb=1 / open_gop=0 / weightp=2 / keyint=250 / keyint_min=25 / scenecut=40 / intra_refresh=0 / rc_lookahead=60 / rc=2pass / mbtree=1 / bitrate=2490 / ratetol=1.0 / qcomp=0.60 / qpmin=0 / qpmax=69 / qpstep=4 / cplxblur=20.0 / qblur=0.5 / ip_ratio=1.40 / aq=1:1.00
Default : Yes
Forced : No

Audio
ID : 2
Format : AC-3
Format/Info : Audio Coding 3
Mode extension : CM (complete main)
Codec ID : A_AC3
Duration : 52mn 14s
Bit rate mode : Constant
Bit rate : 384 Kbps
Channel(s) : 6 channels
Channel positions : Front: L C R, Side: L R, LFE
Sampling rate : 48.0 KHz
Bit depth : 16 bits
Compression mode : Lossy
Stream size : 144 MiB (13%)
Default : Yes
Forced : No


Остаемся на раздаче как можно дольше. Не забываем говорить спасибо.


3069ae8572ce61585034c18517b6918adb87ef81Военная разведка. Западный фронт // Эпизоды с 1 по 8 (из 8) (приключения, военный, 2010) [DVDRip-AVC, Не требуется] Военная разведка. Западный фронт // Эпизоды с 1 по 8 (из 8) (приключения, военный, 2010) [DVDRip-AVC, Не требуется] " />

Аплоадер: Админ, дата: 22-05-2012, 00:45, торрент скачан: 359 раз

Понравилась раздача? Посмотрите эти:
  • FLO / NRG [2012, Pop, Dance, MasterRip]
  • Eminem / Rap God [2013, Rap, HDRip]
  • UFC The Ultimate 100 Knockouts - PPV [MMA,2013, HDTVRip 720p]
  • UFC - Best Of 2012 Year In Review[MMA,2013, BDRip 540p]
  • Центурион / Centurion (Нил Маршалл / Neil Marshall, Боевик, триллер, драма, ...
  • Закон доблести / Act of Valor (Майк МакКой, Скотт Во, боевик, триллер, прик ...
  • Идеальный Голос / Pitch Perfect (Джейсон Мур, Комедия, музыка, 2012) [BDRip ...
  • Смешарики. Начало (Денис Чернов, мультфильм, комедия, приключения, семейный ...
  • Футбольный клуб / Чемпионат Европы 2012 / НТВ+ [Футбол, 08.06.2012, HDTVRip ...
  • Чемпионат Европы 2012 / 1/4 финала / Чехия - Португалия / Спорт 1 HD [Футбо ...
  • Чемпионат Европы 2012 / 1/2 финала / Португалия - Испания / Спорт 1 HD [Фу ...
  • Чемпионат Европы 2012 / 1/2 финала / Германия - Италия / Спорт 1 HD [Футбо ...
  • Чемпионат Европы 2012 / Финал / Испания - Италия / Спорт 1 HD [Футбол, 01. ...
  • Все голы Евро-2012 [Футбол,2012, HDTVRip]
  • Chelsea - Season Review 2011-12 / Челси - Обзор Сезона 2011-12 [ Футбол, 20 ...
  • Формула 1. Сезон 2012. Этап 13 из 20. Гран-При Италии, Квалификация. [2012 ...
  • Лето волков // эпизоды с 1 по 6 (из 6) (драма, военный, 2011) [BDRip - AV ...
  • Военная разведка: Первый удар // Эпизоды с 1 по 8 (из 8) (Приключения, воен ...
  • Военная разведка. Северный фронт // эпизоды с 1 по 8 (из 8) (Приключения, в ...
  • Mylene Farmer / Du Temps [2011, Pop, HDTVRip]
  • Mylene Farmer / Bleu Noir [2011, Pop, HDTVRip]
  • Английская Премьер-Лига 2012-13 / Тур 19 / Манчестер Юнайтед - Ньюкасл Юнай ...
  • Военная разведка // Сезон 1, Эпизоды с 1 по 8 (из 16) (Алексей Праздников, ...
  • Военная разведка. Западный фронт // Эпизоды с 1 по 8 (из 8) (Алексей Праздн ...
  • Портрет в сумерках (Ангелина Никонова, драма, мелодрама, 2011) [DVDRip-AVC, ...
  • Информация
    Посетители, находящиеся в группе Гости, не могут оставлять комментарии к данной публикации.