вход на сайт

Имя пользователя :
Пароль :

Восстановление пароля Регистрация
Лето волков // эпизоды с 1 по 6 (из 6) (драма, военный, 2011) [BDRip - AVC, Не требуется]
Рейтинг:
(голосов: 1)



[img]{THEME}/images/logopost.png[/img]



Лето волков

Эпизоды с 1 по 6 (из6)

Год выпуска: 2011
Страна: Россия
Производство: Дирекция Кино
Жанр: драма, военный

Режиссёр: Дмитрий Иосифов
В ролях: Алексей Бардуков, Анна Полупанова, Максим Житник, Алексей Морозов, Игорь Скляр, Сергей Колтаков, Александр Воробьев, Вера Кавалерова, Юлия Пересильд, Кирилл Новицкий

Перевод: Не требуется
Субтитры: Нет

Описание: Молодой лейтенант, получив отпуск после ранения, приезжает в родные места: здесь, по фронтовым понятиям, глубокий тыл. Окружённое лесами село мало изменилось, война почти не тронула его. Но, всё то и не то… Любимая девушка, давшая обещание «ждать вечно», не хочет даже разговаривать, земляки избегают его, а самый близкий человек, бабка, добрый ангел детства, умоляет снять награды с гимнастёрки и ни за что не ходить в лес. Жестокие убийства заставляют фронтовика вступить в борьбу с теми, кто таится в лесных чащобах. Но, чтобы добраться до убийц, предстоит выяснить, кто из односельчан связан с ними…

Список эпизодов: ▼
Эпизод 1.
Эпизод 2.
Эпизод 2.
Эпизод 4.
Эпизод 5.
Эпизод 6.




Все раздачи сериала

Качество: BDRip - AVC
Продолжительность: ~ 00:52:00

Формат: MKV
Видео кодек: H.264
Аудио кодек: AC3
Свойства видео: 720x576**1024х576 (16:9), 24.000 fps, H.264 ~1 490 kbps avg, 0.150 bit/pixel
Свойства аудио: 48 kHz, Audio Coding 3, 6 ch, ~448 Kbps
"MI" ▼TextFormat : Matroska
Format version : Version 2
File size : 735 MiB
Duration : 52mn 57s
Overall bit rate : 1 939 Kbps
Encoded date : UTC 2011-12-13 03:01:45
Writing application : mkvmerge v5.0.1 (Es ist Sommer) built on Oct 24 2011 19:45:06
Writing library : libebml v1.2.2 libmatroska v1.3.0

Video
ID : 1
Format : AVC
Format/Info : Advanced Video Codec
Format profile : [email protected]
Format settings, CABAC : Yes
Format settings, ReFrames : 8 frames
Codec ID : V_MPEG4/ISO/AVC
Duration : 52mn 57s
Bit rate : 1 490 Kbps
Width : 720 pixels
Height : 576 pixels
Display aspect ratio : 16:9
Frame rate : 24.000 fps
Standard : PAL
Color space : YUV
Chroma subsampling : 4:2:0
Bit depth : 8 bits
Scan type : Progressive
Bits/(Pixel*Frame) : 0.150
Stream size : 550 MiB (75%)
Writing library : x264 core 119 r2106 07efeb4
Encoding settings : cabac=1 / ref=8 / deblock=1:-3:-3 / analyse=0x3:0x113 / me=umh / subme=8 / psy=1 / psy_rd=1.00:0.25 / mixed_ref=1 / me_range=24 / chroma_me=1 / trellis=2 / 8x8dct=1 / cqm=0 / deadzone=21,11 / fast_pskip=1 / chroma_qp_offset=-4 / threads=6 / sliced_threads=0 / nr=0 / decimate=1 / interlaced=0 / bluray_compat=0 / constrained_intra=0 / bframes=6 / b_pyramid=2 / b_adapt=2 / b_bias=0 / direct=3 / weightb=1 / open_gop=0 / weightp=2 / keyint=250 / keyint_min=23 / scenecut=40 / intra_refresh=0 / rc=2pass / mbtree=0 / bitrate=1490 / ratetol=1.0 / qcomp=0.65 / qpmin=0 / qpmax=69 / qpstep=4 / cplxblur=20.0 / qblur=0.5 / ip_ratio=1.40 / pb_ratio=1.30 / aq=1:1.00
Color primaries : BT.709-5, BT.1361, IEC 61966-2-4, SMPTE RP177
Transfer characteristics : BT.709-5, BT.1361
Matrix coefficients : BT.709-5, BT.1361, IEC 61966-2-4 709, SMPTE RP177

Audio
ID : 2
Format : AC-3
Format/Info : Audio Coding 3
Mode extension : CM (complete main)
Codec ID : A_AC3
Duration : 52mn 57s
Bit rate mode : Constant
Bit rate : 448 Kbps
Channel(s) : 6 channels
Channel positions : Front: L C R, Side: L R, LFE
Sampling rate : 48.0 KHz
Bit depth : 16 bits
Compression mode : Lossy
Stream size : 170 MiB (23%)


213b9da8a2f8345310bb5d756a83665537efc5fb Лето волков // эпизоды с 1 по 6 (из 6) (драма, военный, 2011) [BDRip - AVC, Не требуется] Лето волков // эпизоды с 1 по 6 (из 6) (драма, военный, 2011) [BDRip - AVC, Не требуется] " />

Аплоадер: Админ, дата: 19-04-2012, 00:02, торрент скачан: 359 раз

Понравилась раздача? Посмотрите эти:
  • UFC - Best Of 2012 Year In Review[MMA,2013, BDRip 540p]
  • Цельнометаллическая оболочка / Full Metal Jacket (Стэнли Кубрик, драма, вое ...
  • Боевой конь / War Horse (Стивен Спилберг, драма, военный, 2011) [BDRip-AVC, ...
  • Кориолан / Coriolanus (Рэйф Файнс, триллер, драма, 2011) [BDRip-AVC, Дубли ...
  • Мой парень - ангел (Вера Сторожева, фэнтези, мелодрама, комедия, приключени ...
  • Соломенные псы / Straw Dogs (Род Лури, Драма, Триллер, Криминал, 2011) [BDR ...
  • Учитель на замену / Detachment (Тони Кэй, драма, 2011) [BDRip 720р, Професс ...
  • Ю-571 / U-571 (Джонатан Мостоу, Боевик, 2000) [BDRip - AVC, Дубляж + Субтит ...
  • Белый тигр (Карен Шахназаров, военный, 2012) [BDRip 720p, Не требуется]
  • Откровения / Elles (Малгожата Шумовска, Драма, 2011) [BDRip 720p, Профессио ...
  • Возлюбленные / Les bien-aimés (Кристоф Оноре, Драма, 2011) [BDRip 720p, Дуб ...
  • Футбольный клуб / Чемпионат Европы 2012 / НТВ+ [Футбол, 08.06.2012, HDTVRip ...
  • Чемпионат Европы 2012 / Группа C / 1-й тур / Ирландия — Хорватия / Спорт 1 ...
  • Английская Премьер-Лига 2012-13 / Тур 20 / Арсенал - Ньюкасл Юнайтед [футбо ...
  • Военная разведка. Западный фронт // Эпизоды с 1 по 8 (из 8) (приключения, в ...
  • Jon Anderson / The Contemporary Youth Orchestra [2010, Art-Rock, Contempora ...
  • Mylene Farmer / Du Temps [2011, Pop, HDTVRip]
  • Mylene Farmer / Bleu Noir [2011, Pop, HDTVRip]
  • Убежище / Shelter (Монс Морлинд, Бьёрн Стейн, ужасы, триллер, детектив, 201 ...
  • Английская Премьер-Лига 2012-13 / Тур 19 / Манчестер Юнайтед - Ньюкасл Юнай ...
  • Лето волков// Эпизоды с 1 по 6 (из 6) (драма, военный, 2011) [DVDRip, Не тр ...
  • Собачье сердце (Владимир Бортко, фантастика, драма, комедия, 1988) [BDRip 1 ...
  • NBA 2011-2012 / RS / Miami Heat @ Chicago Bulls / TNT [Баскетбол, 12.04.201 ...
  • The Dream Team - NBA TV Documentary [Баскетбол,13.06.2012, HDTVRip/720p, MP ...
  • Церемония открытия летних Олимпийских игр 2012 в Лондоне. НТВ + [27.08.2012 ...
  • Информация
    Посетители, находящиеся в группе Гости, не могут оставлять комментарии к данной публикации.