вход на сайт

Имя пользователя :
Пароль :

Восстановление пароля Регистрация
Блиндаж // Эпизоды с 1 по 4 (из 4) (драма, военный, 2011) [DVDRip-AVC, Не требуется]
Рейтинг:
(голосов: 1)



[img]{THEME}/images/logopost.png[/img]



Блиндаж

Эпизоды с 1 по 4 (из 4)

Год выпуска: 2011
Страна: Россия
Производство: Фаворит фильм
Жанр: драма, военный

Режиссёр: Александр Горновский
В ролях: Ирина Рахманова, Игорь Хрипунов, Евгений Князев,Алексей Шевченков, Федор Лавров, Сергей Угрюмов, Кирилл Полухин, Евгений Атарик

Перевод: Не требуется
Субтитры: Отсутствуют

Описание: Июль 1941 года. Идут ожесточенные бои под белорусским селом Любаши. Многие жители успевают скрыться в лесах, но некоторые оказываются прямо в эпицентре жаркой битвы. Не в силах сдержать натиск немецких войск, советская армия быстро сдает свои позиции, и фронт отодвигается дальше на восток.

Ослепший после взрыва, капитан Хлебников приходит в себя в окопном блиндаже. Понимая, что шансов уйти нет, он пытается застрелиться, но его находит оставшаяся в селе Серафима. Она решает помочь раненому солдату.

Вскоре к компании Хлебникова присоединяется немец-дезертир Хольц, райкомовец Демидович и Нохим, чудом выживший после массового расстрела евреев. Все участники необычной компании плохо ладят между собой, но понимая, что от их осторожности зависит жизнь Серафимы, которая с риском для жизни обеспечивает их всем необходимым, они стараются жить в мире.

Список эпизодов: ▼1-я серия
2-я серия
3-я серия
4-я серия



Все раздачи сериала

Качество: DVDRip-AVC
Продолжительность: по ~00:51:00

Формат: MKV
Видео кодек: AVC
Аудио кодек: AC-3
Свойства видео: [email protected] (16:9), 25.000 fps, AVC ~1787-1839 kbps avg, 0.171-0.177 bit/pixel
Свойства аудио: 48 kHz, AC-3, 2 ch, ~192.00 kbps avg

MediaInfo ▼Общее
Полное имя : F:Blindazh.(1.serija.iz.4).2011.DVDRip-AVC.mkv
Формат : Matroska
Версия формата : Version 2
Размер файла : 744 Мбайт
Продолжительность : 51 м.
Общий поток : 2033 Кбит/сек
Дата кодирования : UTC 2012-02-25 05:39:27
Программа кодирования : mkvmerge v5.2.1 (A Far Off Place) built on Jan 2 2012 23:21:10
Библиотека кодирования : libebml v1.2.3 + libmatroska v1.3.0
Видео
Идентификатор : 1
Формат : AVC
Формат/Информация : Advanced Video Codec
Профиль формата : [email protected]
Параметр CABAC формата : Да
Параметр ReFrames формата : 9 кадров
Идентификатор кодека : V_MPEG4/ISO/AVC
Продолжительность : 51 м.
Битрейт : 1839 Кбит/сек
Ширина : 720 пикселей
Высота : 576 пикселей
Соотношение сторон : 16:9
Частота кадров : 25,000 кадров/сек
Стандарт вещания : PAL
Цветовое пространство : YUV
Субдискретизация насыщенности : 4:2:0
Битовая глубина : 8 бит
Тип развёртки : Прогрессивная
Бит/(Пиксели*Кадры) : 0.177
Размер потока : 659 Мбайт (89%)
Библиотека кодирования : x264 core 119 r2106 07efeb4
Настройки программы : cabac=1 / ref=9 / deblock=1:-1:-1 / analyse=0x3:0x133 / me=umh / subme=9 / psy=1 / psy_rd=1.00:0.10 / mixed_ref=1 / me_range=32 / chroma_me=1 / trellis=2 / 8x8dct=1 / cqm=0 / deadzone=21,11 / fast_pskip=0 / chroma_qp_offset=-3 / threads=12 / sliced_threads=0 / nr=0 / decimate=1 / interlaced=0 / bluray_compat=0 / constrained_intra=0 / bframes=8 / b_pyramid=2 / b_adapt=2 / b_bias=0 / direct=3 / weightb=1 / open_gop=0 / weightp=2 / keyint=250 / keyint_min=25 / scenecut=40 / intra_refresh=0 / rc_lookahead=70 / rc=2pass / mbtree=1 / bitrate=1839 / ratetol=1.0 / qcomp=0.60 / qpmin=0 / qpmax=69 / qpstep=4 / cplxblur=20.0 / qblur=0.5 / ip_ratio=1.40 / aq=1:1.00
Язык : Russian
Default : Да
Forced : Нет
Аудио
Идентификатор : 2
Формат : AC-3
Формат/Информация : Audio Coding 3
Расширение режима : CM (complete main)
Идентификатор кодека : A_AC3
Продолжительность : 51 м.
Вид битрейта : Постоянный
Битрейт : 192 Кбит/сек
Каналы : 2 канала
Расположение каналов : Front: L R
Частота : 48,0 КГц
Битовая глубина : 16 бит
Метод сжатия : С потерями
Размер потока : 70,3 Мбайт (9%)
Язык : Russian
Default : Да
Forced : Нет
Меню
00:00:00.000 : :Chapter 01
00:03:06.160 : :Chapter 02
00:08:11.280 : :Chapter 03
00:14:07.320 : :Chapter 04
00:18:04.800 : :Chapter 05
00:24:35.560 : :Ch
f040f05b13c11edce4ccfa87052ed47c836b0b50Блиндаж // Эпизоды с 1 по 4 (из 4) (драма, военный, 2011) [DVDRip-AVC, Не требуется] Блиндаж // Эпизоды с 1 по 4 (из 4) (драма, военный, 2011) [DVDRip-AVC, Не требуется] " />

Аплоадер: Админ, дата: 27-02-2012, 21:50, торрент скачан: 359 раз

Понравилась раздача? Посмотрите эти:
  • А зори здесь тихие... // Эпизоды с 1 по 12 (из 12) (Боевик, драма, военный ...
  • Астрал на улице Арлетт / 388 Arletta Avenue (Рэндолл Коул, Триллер, 2011) [ ...
  • Кавказский пленник (Сергей Бодров, драма, военный, 1996) [DVDRip-AVC, не тр ...
  • Королевство кривых зеркал (Александр Роу, фэнтези, семейный, 1963) [BDRip-A ...
  • Джек Ричер / Jack Reacher (Кристофер МакКуорри, Боевик,триллер, криминал, д ...
  • Убей ради меня / Kill for Me (Майкл Гринспен, триллер, драма, 2013) [DVDRip ...
  • Мертвое поле (Александр Аравин, Драма, военный, 2006) [DVDRip-AVC, Оригинал ...
  • Побег / Flukt (Роар Утхауг, боевик, 2012) [DVDRip-AVC, Любительский (одного ...
  • Челюсти 3D / Shark Night 3D ( Дэвид Р. Эллис, ужасы, 2011) [BDRip-AVC, Проф ...
  • Иностранный легион / La cité (Ким Нгуйен / Kim Nguyen, драма, 2010) [DVDRip ...
  • Полководцы / Tau ming chong (Питер Чан, Вэй мэн Йип, боевик, драма, военный ...
  • ДухLess (Роман Прыгунов, Драма, 2012) [BDRip-AVC, Не требуется]
  • Цель жизни /Lyaksha (Фархан Ахтар, мелодрама, 2004) [DVDRip, Многоголосый ...
  • Облачный атлас / Cloud Atlas (Лана Вачовски, Том Тыквер, Энди Вачовски, фан ...
  • День учителя (Сергей Мокрицкий, драма, 2012) [DVDRip-AVC, Не требуется]
  • Рейдер (Всеволод Аравин, драма, криминал, 2011) [BDRip 720p, оригинал]
  • Маугли (Роман Давыдов, мультфильм, приключения, семейный, 1973) [BDRip 720p ...
  • Далеко от войны // Эпизоды с 1 по 4 (из 4) (драма, военный, 2012) [DVDRip-A ...
  • МУР // Эпизоды с 1 по 20 (из 20) (криминал, военный, 2012) [DVDRip-AVC, Не ...
  • Блиндаж // Эпизоды с 1 по 4 (из 4) (драма, военный, 2011) [DVDRip, Не требу ...
  • Информация
    Посетители, находящиеся в группе Гости, не могут оставлять комментарии к данной публикации.