вход на сайт

Имя пользователя :
Пароль :

Восстановление пароля Регистрация
Трава под снегом // Эпизоды с 1 по 4 (из 4) (Владимир Янощук, Мелодрама, 2010) [HDTV 1080i, Не требуется]
Рейтинг:
(голосов: 1)



[img]{THEME}/images/logopost.png[/img]



Трава под снегом

Эпизоды с 1 по 4 (из 4)

Год выпуска: 2010
Страна: Россия
Производство: Star Media
Жанр: Мелодрама

Режиссёр: Владимир Янощук
В ролях: Татьяна Арнтгольц, Алексей Горбунов, Павел Баршак, Саша Дробитько, Федор Лавров, Мария Звонарева, Владимир Стеклов, Яна Соболевская, Олеся Власова, Леся Самаева, Ирина Калашникова (Мельник) (II), Анатолий Ященко, Виктория Корсун

Перевод: Не требуется
Субтитры: НЕТ

Описание: Сестры Леся и Саша воспитывались в интеллигентной, но бедной семье. Саша – гордость родителей, умница и красавица. Леся – обыкновенная девочка, искренне отдающая предпочтение ценностям материальным. Все меняется после гибели родителей. Саша, продав квартиру и бросив на попечение сестры рожденного вне брака пятилетнего сына, уезжает искать счастья в Америку. Леся выходит замуж за человека, семья которого служит богатому и властному Командору. Ее благополучный брак рушится, когда на вечеринке в доме хозяина в состоянии гипнотического оцепенения она позволяет Командору затащить себя в спальню. Леся остается одна без дома и работы с пятилетним племянником на руках…
И все же она справится. Лишь пригнется, как трава под снегом, но выживет...

Список эпизодов: ▼
Эпизод 1.
Эпизод 2.
Эпизод 3.
Эпизод 4.
Все раздачи сериала

Качество: HDTV 1080i
Продолжительность: по ~ 00:45:00

Формат: TS
Видео кодек: H.264
Аудио кодек: MP2
Свойства видео: 1920x1080, (16:9), 25 fps, MPEG-4 AVC, 9 457 kbps, 0.182 bit/pixel
Свойства аудио RUS: 48 kHz, MPEG Layer 2, 2 ch, 192 kbps

MediaInfo ▼
General
ID : 1 (0x1)
Complete name : C:01. Трава под снегом_2010_HDTV 1080i.ts
Format : MPEG-TS
File size : 3.21 GiB
Duration : 45mn 19s
Overall bit rate : 10.2 Mbps

Video
ID : 1700 (0x6A4)
Menu ID : 1 (0x1)
Format : AVC
Format/Info : Advanced Video Codec
Format profile : [email protected]
Format settings, CABAC : Yes
Format settings, ReFrames : 4 frames
Codec ID : 27
Duration : 45mn 19s
Bit rate : 9 457 Kbps
Width : 1 920 pixels
Height : 1 080 pixels
Display aspect ratio : 16:9
Frame rate : 25.000 fps
Standard : Component
Color space : YUV
Chroma subsampling : 4:2:0
Bit depth : 8 bits
Scan type : Interlaced
Scan order : Top Field First
Bits/(Pixel*Frame) : 0.182
Stream size : 2.99 GiB (93%)
Color primaries : BT.709-5, BT.1361, IEC 61966-2-4, SMPTE RP177
Transfer characteristics : BT.709-5, BT.1361
Matrix coefficients : BT.709-5, BT.1361, IEC 61966-2-4 709, SMPTE RP177

Audio
ID : 1710 (0x6AE)
Menu ID : 1 (0x1)
Format : MPEG Audio
Format version : Version 1
Format profile : Layer 2
Codec ID : 3
Duration : 45mn 19s
Bit rate mode : Constant
Bit rate : 192 Kbps
Channel(s) : 2 channels
Sampling rate : 48.0 KHz
Compression mode : Lossy
Stream size : 62.3 MiB (2%)
Language : Russian



Набор в релиз-группу | Стол заказов | Книга жалоб и предложений


0870e8710b128a43d328b68974da554be42f412bТрава под снегом // Эпизоды с 1 по 4 (из 4) (Владимир Янощук, Мелодрама, 2010) [HDTV 1080i, Не требуется] Трава под снегом // Эпизоды с 1 по 4 (из 4) (Владимир Янощук, Мелодрама, 2010) [HDTV 1080i, Не требуется] " />

Аплоадер: Админ, дата: 5-03-2013, 19:58, торрент скачан: 359 раз

Понравилась раздача? Посмотрите эти:
  • Beyoncе / The Sound Of Change Live [2013, Pop, HDTV 1080i]
  • Beyoncе / The Sound Of Change Live [2013, Pop, HDTV 1080i]
  • Rihanna / What Now [2013, R&B, HDTV]
  • Владимир Кличко - Александр Поветкин / Первый HD [Бокс, 05.10.2013, H.264, ...
  • Чемпионат Мира 2014 / Отборочный турнир / Группа I / 10-й тур / Беларусь - ...
  • Алсу. "Я - не принцесса" (Документальный, культура, эстрада, биография, 29. ...
  • Zaz / On Ira [2013, Jazz, Chanson, HDTV 1080i]
  • Чемпионат Англии 2012-2013 / 36-й тур / Манчестер Юнайтед - Челси / Спорт 1 ...
  • Чемпионат Испании 2012-13 / 34-й тур / Реал Мадрид - Вальядолид / НТВ+ [04. ...
  • Тележурнал "Евроголы" / Eurosport HD [Футбол, 06.05.2013, 1080i, H264, RU, ...
  • Парад Победы. Москва. Красная Площадь / Военный парад, посвящённый 68-й год ...
  • [NG] Путешествие по Атлантике: Часть 2 / Travel across the Atlantic: Part 2 ...
  • Чемпионат Испании 2011-12 / 35-й тур / Барселона - Реал / Футбол HD [Футбол ...
  • NBA 2012-2013 / RS / 03.11.2012 / Denver Nuggets @ Miami Heat [Баскетбол, H ...
  • Katy Perry / Live At Rock In Rio [2011, Pop, HDTV] [1080i]
  • Jon Anderson / The Contemporary Youth Orchestra [2010, Art-Rock, Contempora ...
  • Rihanna / Diamonds (Victorias Secret) [2012, RnB, HDTV 1080i]
  • David Guetta feat. Sia / She Wolf [2012, Pop, Dance, HDTV 1080i]
  • Голос // Выпуск 13 / Суперфинал (ТВ-шоу, 29.12.2012) [HDTV |1080i|, Не треб ...
  • Первый Новогодний вечер с Максимом Галкиным и Владимиром Зеленским (ТВ-Шоу, ...
  • Melody Gardot / Mira [2012, Jazz, Acoustic, HDTV 1080i]
  • Трава под снегом // Эпизоды с 1 по 4 (из 4) (Владимир Янощук, Мелодрама, 20 ...
  • Трава под снегом // Эпизоды с 1 по 4 (из 4) (Владимир Янощук, Мелодрама, 20 ...
  • Чемпионат Европы. Группа D. Швеция - Англия / EURO-2012. Group D. Sweden - ...
  • Бой за титул чемпиона мира по боксу в супертяжелом весе по версии IBF / Вла ...
  • Информация
    Посетители, находящиеся в группе Гости, не могут оставлять комментарии к данной публикации.