вход на сайт

Имя пользователя :
Пароль :

Восстановление пароля Регистрация
А зори здесь тихие... // Эпизоды с 1 по 12 (из 12) (Боевик, драма, военный, 2005) [DVDRip-AVC, Не требуется]
Рейтинг:
(голосов: 1)



[img]{THEME}/images/logopost.png[/img]



«А зори здесь тихие...»

¤Эпизоды 1 по 12 (из 12)¤

¤Информация о фильме¤
Год выпуска: 2005
Страна:РоссияКитай
Производство: China Central Television (CCTV)
Жанр: боевик, драма, военный

Режиссёр: Мао Вэйнин
В ролях: Андрей Соколов, Татьяна Остап, Дарья Чаруша, Елена Мальцева, Снежана Гладнева, Александра Теряева, Людмила Колесникова, Анна Милена Амон, Любовь Казакова

Перевод: Не требуется
Субтитры: нет
Описание
¤ ¤ ¤
- ...В прифронтовой полосе группа девушек-зенитчиц вынуждена вступить в неравный бой с вражескими десантниками. Эти девушки мечтали о большой любви, нежности, семейном тепле — но на их долю выпала жестокая война, и они до конца выполнили свой воинский долг... -
¤ ¤ ¤

Список сериий. ▼1. Серия
2. Серия
3. Серия
4. Серия
5. Серия
6. Серия
7. Серия
8. Серия
9. Серия
10. Серия
11. Серия
12. Серия



Все раздачи сериала

¤Тех.Данные¤
Качество: DVDRip-AVC
Продолжительность: по ~ 00:45:20 часа

Формат: Matroska-MKV-
Видео кодек: AVC [email protected]
Аудио кодек: Audio Coding 3
Свойство видео: 704x432 (16:9), 25 fps, AVC ~1840 kbps avg, 0.242 bit/pixel
Свойство аудио: 48 kHz, AC3 Dolby Digital, 3/2 (L,C,R,l,r) + L,F,E ch, ~448 kbps

Информация MediaInfo ▼TextОбщее
Уникальный идентификатор : 235681287516520946250554411267855389525 (0xB14E909D05E207E78297E318E2E69355)
Полное имя : E:DownloadsA.zori.zdes.tihie.2005.DVDRip-AVC_[Youtracker]_by_AVP Studio�2.Серия.mkv
Формат : Matroska
Версия формата : Version 2
Размер файла : 743 Мбайт
Продолжительность : 45 м.
Общий поток : 2290 Кбит/сек
Дата кодирования : UTC 2013-06-20 14:43:05
Программа кодирования : mkvmerge v5.0.1 (Es ist Sommer) built on Nov 6 2011 16:23:40
Библиотека кодирования : libebml v1.2.2 + libmatroska v1.3.0

Видео
Идентификатор : 1
Формат : AVC
Формат/Информация : Advanced Video Codec
Профиль формата : [email protected]
Параметр CABAC формата : Да
Параметр ReFrames формата : 11 кадров
Идентификатор кодека : V_MPEG4/ISO/AVC
Продолжительность : 45 м.
Битрейт : 1840 Кбит/сек
Ширина : 704 пикселя
Высота : 432 пикселя
Соотношение сторон : 16:9
Соотношение сторон в оригинале : 16:9
Частота кадров : 25,000 кадров/сек
Цветовое пространство : YUV
Субдискретизация насыщенности : 4:2:0
Битовая глубина : 8 бит
Тип развёртки : Прогрессивная
Бит/(Пиксели*Кадры) : 0.242
Размер потока : 583 Мбайт (78%)
Библиотека кодирования : x264 core 130 r2273 b3065e6
Настройки программы : cabac=1 / ref=11 / deblock=1:-2:-1 / analyse=0x3:0x113 / me=umh / subme=9 / psy=1 / psy_rd=1.00:0.20 / mixed_ref=1 / me_range=32 / chroma_me=1 / trellis=1 / 8x8dct=1 / cqm=0 / deadzone=21,11 / fast_pskip=0 / chroma_qp_offset=-3 / threads=3 / lookahead_threads=1 / sliced_threads=0 / nr=0 / decimate=0 / interlaced=0 / bluray_compat=0 / constrained_intra=0 / bframes=8 / b_pyramid=2 / b_adapt=2 / b_bias=0 / direct=3 / weightb=1 / open_gop=0 / weightp=2 / keyint=250 / keyint_min=25 / scenecut=40 / intra_refresh=0 / rc_lookahead=60 / rc=2pass / mbtree=1 / bitrate=1840 / ratetol=1.0 / qcomp=0.60 / qpmin=0 / qpmax=69 / qpstep=4 / cplxblur=20.0 / qblur=0.5 / ip_ratio=1.40 / aq=1:1.00
Default : Да
Forced : Нет

Аудио
Идентификатор : 2
Формат : AC-3
Формат/Информация : Audio Coding 3
Расширение режима : CM (complete main)
Идентификатор кодека : A_AC3
Продолжительность : 45 м.
Вид битрейта : Постоянный
Битрейт : 448 Кбит/сек
Каналы : 6 каналов
Расположение каналов : Front: L C R, Side: L R, LFE
Частота : 48,0 КГц
Битовая глубина : 16 бит
Метод сжатия : С потерями
Размер потока : 145 Мбайт (20%)
Default : Да
Forced : Нет

_____________________________________________________________________________________


67b0c11e47d413234f68f2104ae3b8f0052926a1А зори здесь тихие... // Эпизоды с 1 по 12 (из 12) (Боевик, драма, военный, 2005) [DVDRip-AVC, Не требуется] А зори здесь тихие... // Эпизоды с 1 по 12 (из 12) (Боевик, драма, военный, 2005) [DVDRip-AVC, Не требуется] " />

Аплоадер: Админ, дата: 23-06-2013, 17:32, торрент скачан: 359 раз

Понравилась раздача? Посмотрите эти:
  • Усатый нянь (Владимир Грамматиков, комедия, семейный, 1977) [DVDRip-AVC, Не ...
  • Интимные места (Наталья Меркулова, Алексей Чупов, драма, мелодрама, 2013) [ ...
  • Марафон (Карен Оганесян, комедия, 2013) [DVDRip-AVC, Не требуется]
  • Они сражались за Родину (полная версия) (Сергей Бондарчук, драма, военный, ...
  • Незнакомец внутри / The Stranger Within (Adam Neutzsky-Wulff, триллер, 2013 ...
  • Филадельфия / Philadelphia (Джонатан Демме, Драма, 1993) [BDRip-AVC, Профес ...
  • Башня / The Tower (Чи-хун Ким, драма, 2012) [BDRip-AVC, Любительский (двухг ...
  • Гараж (Эльдар Рязанов, драма, комедия, 1979) [DVDRip-AVC, Оригинал (русский ...
  • Голливудский мусор / Garbage (Филипп Волкен, драма, комедия, 2013) [HDTVRip ...
  • Виолет и Дейзи / Sightseers (Джеффри Флетчер, боевик, триллер, драма, комед ...
  • Кавказский пленник (Сергей Бодров, драма, военный, 1996) [DVDRip-AVC, не тр ...
  • [NG] Война львов / Lion Battle Zone (документальный, 2011) [HDTVRip-AVC, Пр ...
  • Новые технологии войны / The New Technology of War [Часть 1] (документальны ...
  • Новые технологии войны / The New Technology of War [Часть 2] (документальны ...
  • Дикий запад. Кино и реальность / The Wild And The West (документальный, 200 ...
  • Толстяк на ринге / Here Comes the Boom (Фрэнк Корачи, Боевик, комедия, 2012 ...
  • Суррогат / The Sessions (Бен Луин, Драма, 2012) [BDRip-AVC, Профессиональны ...
  • Мертвое поле (Александр Аравин, Драма, военный, 2006) [DVDRip-AVC, Оригинал ...
  • Чемпионат Англии 2012-2013 / 25-й тур / Обзор / Суббота / BBC Sport [2013 г ...
  • А зори здесь тихие (Станислав Ростоцкий, драма, военный, история, 1972) [AV ...
  • Котенок с улицы Лизюкова (Вячеслав Котеночкин, Мультфильм, 1988) [DVDRip-AV ...
  • Лоракс: Серенада / The Lorax: Serenade (Кайл Балда, мультфильм, комедия, му ...
  • МУР // Эпизоды с 1 по 20 (из 20) (криминал, военный, 2012) [DVDRip-AVC, Не ...
  • А зори здесь тихие... (Станислав Ростоцкий, Драма, военный, история, 1972 г ...
  • А зори здесь тихие (Станислав Ростоцкий, драма, военный, история, 1972) [AV ...
  • Информация
    Посетители, находящиеся в группе Гости, не могут оставлять комментарии к данной публикации.